<?xml version="1.0" standalone="no"?>
<!DOCTYPE svg PUBLIC "-//W3C//DTD SVG 1.1//EN" "http://www.w3.org/Graphics/SVG/1.1/DTD/svg11.dtd" >
<svg>
<metadata>
Created by FontForge 20090622 at Fri Nov  8 12:06:13 2019
 By deploy user
Copyright (c) 2010 by Benjamin Critton. All rights reserved.
</metadata>
<defs>
<font id="Raisonne-DemiBold" horiz-adv-x="594" >
  <font-face 
    font-family="Raisonne"
    font-weight="600"
    font-stretch="normal"
    units-per-em="1000"
    panose-1="2 0 5 3 3 0 0 2 0 4"
    ascent="800"
    descent="-200"
    x-height="500"
    cap-height="700"
    bbox="-71 -262 1306 995"
    underline-thickness="50"
    underline-position="-50"
    unicode-range="U+0020-U+FB02"
  />
<missing-glyph horiz-adv-x="698" 
d="M178 150l-150 260l50 29l163 -96l-82 142l58 34l150 -259l-50 -29l-156 84l76 -131zM316 404q-21 38 -21 78q0 41 19.5 76t54.5 56q35 20 73 20q41 0 77 -21t58 -58q21 -37 21 -78t-19.5 -76t-54.5 -56q-34 -19 -72 -19q-41 0 -77.5 21t-58.5 57zM375 438q27 -45 77 -45
q21 0 38 10q40 24 40 72q0 25 -12 46q-27 45 -77 45q-20 0 -39 -10q-39 -22 -39 -71q0 -25 12 -47zM217 71l-29 50l464 268l29 -50z" />
    <glyph glyph-name=".notdef" horiz-adv-x="698" 
d="M178 150l-150 260l50 29l163 -96l-82 142l58 34l150 -259l-50 -29l-156 84l76 -131zM316 404q-21 38 -21 78q0 41 19.5 76t54.5 56q35 20 73 20q41 0 77 -21t58 -58q21 -37 21 -78t-19.5 -76t-54.5 -56q-34 -19 -72 -19q-41 0 -77.5 21t-58.5 57zM375 438q27 -45 77 -45
q21 0 38 10q40 24 40 72q0 25 -12 46q-27 45 -77 45q-20 0 -39 -10q-39 -22 -39 -71q0 -25 12 -47zM217 71l-29 50l464 268l29 -50z" />
    <glyph glyph-name=".null" horiz-adv-x="0" 
 />
    <glyph glyph-name="nonmarkingreturn" horiz-adv-x="333" 
 />
    <glyph glyph-name="space" unicode=" " horiz-adv-x="282" 
 />
    <glyph glyph-name="exclam" unicode="!" horiz-adv-x="296" 
d="M200 712v-524h-112v512zM218 69q0 -31 -21.5 -53t-52.5 -22t-52.5 22t-21.5 53t21.5 53t52.5 22t52.5 -22t21.5 -53z" />
    <glyph glyph-name="quotedbl" unicode="&#x22;" horiz-adv-x="418" 
d="M76 487v213l106 12v-225h-106zM236 487v213l106 12v-225h-106z" />
    <glyph glyph-name="numbersign" unicode="#" horiz-adv-x="822" 
d="M461 0v200h-100v-200h-100v200h-200v100h200v100h-200v100h200v200l100 12v-212h100v200l100 12v-212h200v-100h-200v-100h200v-100h-200v-200h-100zM361 400v-100h100v100h-100z" />
    <glyph glyph-name="dollar" unicode="$" horiz-adv-x="538" 
d="M188 526q0 -19 6.5 -32t24 -23.5t31.5 -16.5t46 -16.5t51 -17.5q143 -54 143 -198q0 -83 -48.5 -143.5t-124.5 -78.5v-100h-100v99q-78 16 -127.5 77.5t-49.5 142.5h112q0 -51 30.5 -85t82.5 -34t82.5 33t30.5 86q0 25 -8 44.5t-19 31t-31.5 21.5t-38 15.5l-46 14.5
t-47.5 16q-50 19 -80 60.5t-30 97.5q0 67 37 116t97 64v100h100v-100q76 -16 116 -84l-75 -75q-12 28 -36 43.5t-52 15.5q-34 0 -55.5 -21t-21.5 -53z" />
    <glyph glyph-name="percent" unicode="%" horiz-adv-x="952" 
d="M248 -61l365 861l91 -39l-365 -861zM48 525q0 78 51 129.5t130 51.5t130 -51.5t51 -129.5t-51 -129.5t-130 -51.5t-130 51.5t-51 129.5zM148 525q0 -37 22.5 -60t58.5 -23t58.5 23t22.5 60t-22.5 60t-58.5 23t-58.5 -23t-22.5 -60zM542 175q0 78 51 129.5t130 51.5
t130 -51.5t51 -129.5t-51 -129.5t-130 -51.5t-130 51.5t-51 129.5zM642 175q0 -37 22.5 -60t58.5 -23t58.5 23t22.5 60t-22.5 60t-58.5 23t-58.5 -23t-22.5 -60z" />
    <glyph glyph-name="ampersand" unicode="&#x26;" horiz-adv-x="718" 
d="M497 219q0 -98 -67 -161.5t-162 -63.5t-161 66t-66 159q0 56 29 104.5t75 76.5q-63 53 -63 128q0 76 52.5 127t133.5 51q54 0 99 -29.5t68 -74.5l-74 -66q-36 64 -93 64q-36 0 -57 -22t-21 -56q0 -33 22.5 -55.5t55.5 -22.5h38v-106h-38q-51 0 -83 -33t-32 -86
q0 -50 32.5 -84.5t82.5 -34.5q52 0 84.5 33t32.5 86q0 42 -25 73v100h332v-100h-208q13 -37 13 -73z" />
    <glyph glyph-name="quotesingle" unicode="'" horiz-adv-x="258" 
d="M76 487v213l106 12v-225h-106z" />
    <glyph glyph-name="parenleft" unicode="(" horiz-adv-x="450" 
d="M173 350q0 -136 69.5 -242.5t185.5 -162.5l-53 -95q-141 67 -227.5 202t-86.5 298t86.5 298t227.5 202l53 -95q-116 -56 -185.5 -162.5t-69.5 -242.5z" />
    <glyph glyph-name="parenright" unicode=")" horiz-adv-x="450" 
d="M277 350q0 136 -69.5 242.5t-185.5 162.5l53 95q141 -67 227.5 -202t86.5 -298t-86.5 -298t-227.5 -202l-53 95q116 56 185.5 162.5t69.5 242.5z" />
    <glyph glyph-name="asterisk" unicode="*" horiz-adv-x="390" 
d="M309 445l-80 45v-90h-68v90l-80 -45l-33 60l78 45l-78 45l33 60l80 -46v91l68 6v-97l80 46l33 -60l-78 -45l78 -45z" />
    <glyph glyph-name="plus" unicode="+" horiz-adv-x="573" 
d="M57 300v100h174v178h108v-178h174v-100h-174v-178h-108v178h-174z" />
    <glyph glyph-name="comma" unicode="," horiz-adv-x="276" 
d="M88 -160l-92 53l126 213h120z" />
    <glyph glyph-name="hyphen" unicode="-" horiz-adv-x="460" 
d="M57 280v100h343v-100h-343z" />
    <glyph glyph-name="period" unicode="." horiz-adv-x="292" 
d="M72 69q0 31 21.5 53t52.5 22t52.5 -22t21.5 -53t-21.5 -53t-52.5 -22t-52.5 22t-21.5 53z" />
    <glyph glyph-name="slash" unicode="/" horiz-adv-x="474" 
d="M10 -61l365 861l91 -39l-365 -861z" />
    <glyph glyph-name="zero" unicode="0" horiz-adv-x="808" 
d="M58 350q0 148 99.5 252t246.5 104t246.5 -104t99.5 -252t-99.5 -252t-246.5 -104t-246.5 104t-99.5 252zM172 350q0 -74 32 -129l333 333q-61 46 -133 46q-99 0 -165.5 -73.5t-66.5 -176.5zM636 350q0 71 -32 129l-334 -334q61 -45 134 -45q99 0 165.5 73.5t66.5 176.5z
" />
    <glyph glyph-name="one" unicode="1" horiz-adv-x="268" 
d="M78 0v700l112 12v-712h-112z" />
    <glyph glyph-name="two" unicode="2" horiz-adv-x="586" 
d="M65 0v130q0 160 155 220l40.5 14t42.5 15t37 17t32.5 23t20 31.5t8.5 43.5q0 48 -29 77t-81 29q-94 0 -131 -100l-78 73q27 60 81.5 96.5t124.5 36.5q106 0 165.5 -58t59.5 -153q0 -161 -175 -219l-47.5 -16t-41 -18.5t-39 -27.5t-23 -37t-10.5 -52v-19h336v-106h-448z
" />
    <glyph glyph-name="three" unicode="3" horiz-adv-x="561" 
d="M184 534l-75 67q24 45 69 75t98 30q85 0 135 -47t50 -128q0 -76 -59 -130q102 -63 102 -182q0 -103 -64.5 -164t-163.5 -61q-98 0 -161.5 65.5t-63.5 159.5h108q0 -51 32 -85t85 -34t84.5 32t31.5 87q0 56 -30 87.5t-81 31.5h-50v106h39q37 0 60 21t23 60q0 35 -21.5 55
t-55.5 20q-60 0 -92 -66z" />
    <glyph glyph-name="four" unicode="4" horiz-adv-x="606" 
d="M59 700l112 12v-359h169v259h112v-259h94v-106h-94v-247h-112v247h-281v453z" />
    <glyph glyph-name="five" unicode="5" horiz-adv-x="552" 
d="M59 219h112q0 -52 33 -85.5t82 -33.5q51 0 81 32.5t30 86.5t-29 86.5t-80 32.5q-45 0 -77 -30h-108v392h364v-106h-256v-175q41 25 93 25q89 0 147 -61t58 -164q0 -98 -64 -161.5t-159 -63.5q-99 0 -163 65.5t-64 159.5z" />
    <glyph glyph-name="six" unicode="6" horiz-adv-x="551" 
d="M57 219q0 54 33 118l192 363h114l-140 -264q16 6 40 6q89 0 150 -60t61 -163q0 -99 -63.5 -162t-161.5 -63t-161.5 63t-63.5 162zM169 219q0 -52 31.5 -85.5t81.5 -33.5t81.5 33.5t31.5 85.5t-31.5 84.5t-81.5 32.5t-81.5 -32.5t-31.5 -84.5z" />
    <glyph glyph-name="seven" unicode="7" horiz-adv-x="510" 
d="M142 300v100h122l103 194h-332v106h455v-94l-108 -206h62v-100h-115l-157 -300h-119l158 300h-69z" />
    <glyph glyph-name="eight" unicode="8" horiz-adv-x="586" 
d="M108 522q0 79 52 131.5t133 52.5t133 -52.5t52 -131.5q0 -74 -55 -124q97 -65 97 -179q0 -95 -64.5 -160t-162.5 -65t-162.5 65t-64.5 160q0 114 97 179q-55 50 -55 124zM178 219q0 -54 32 -86.5t83 -32.5t83 32.5t32 86.5t-32 86.5t-83 32.5t-83 -32.5t-32 -86.5z
M216 522q0 -35 21.5 -56.5t55.5 -21.5t55.5 21.5t21.5 56.5t-21.5 56.5t-55.5 21.5t-55.5 -21.5t-21.5 -56.5z" />
    <glyph glyph-name="nine" unicode="9" horiz-adv-x="578" 
d="M500 712v-712h-112v302q-43 -46 -123 -46q-97 0 -159 63t-62 162t62 162t159 63q79 0 123 -47v41zM388 481q0 53 -33 87t-84 34t-83 -34t-32 -87t32 -87t83 -34t84 34t33 87z" />
    <glyph glyph-name="colon" unicode=":" horiz-adv-x="292" 
d="M72 69q0 31 21.5 53t52.5 22t52.5 -22t21.5 -53t-21.5 -53t-52.5 -22t-52.5 22t-21.5 53zM72 350q0 31 21.5 53t52.5 22t52.5 -22t21.5 -53t-21.5 -53t-52.5 -22t-52.5 22t-21.5 53z" />
    <glyph glyph-name="semicolon" unicode=";" horiz-adv-x="292" 
d="M112 350q0 31 21.5 53t52.5 22t52.5 -22t21.5 -53t-21.5 -53t-52.5 -22t-52.5 22t-21.5 53zM88 -160l-92 53l126 213h120z" />
    <glyph glyph-name="less" unicode="&#x3c;" horiz-adv-x="394" 
d="M338 194l-71 -70l-226 226l226 226l71 -70l-158 -156z" />
    <glyph glyph-name="equal" unicode="=" horiz-adv-x="572" 
d="M57 360v100h455v-100h-455zM57 200v100h455v-100h-455z" />
    <glyph glyph-name="greater" unicode="&#x3e;" horiz-adv-x="394" 
d="M127 124l-71 70l158 156l-158 156l71 70l226 -226z" />
    <glyph glyph-name="question" unicode="?" horiz-adv-x="511" 
d="M282 69q0 -31 -21.5 -53t-52.5 -22t-52.5 22t-21.5 53t21.5 53t52.5 22t52.5 -22t21.5 -53zM264 188h-112q0 72 32 113.5t86 71.5q50 28 69.5 52.5t19.5 67.5q0 49 -31 78t-82 29q-90 0 -128 -100l-80 77q63 129 209 129q101 0 162 -59.5t61 -150.5q0 -69 -24 -109.5
t-70 -69.5q-11 -7 -35 -21t-32.5 -20.5t-22 -19.5t-18 -29.5t-4.5 -38.5z" />
    <glyph glyph-name="at" unicode="@" horiz-adv-x="754" 
d="M524 500v-146q0 -26 10.5 -43t31.5 -17q46 0 46 86q0 100 -58.5 164t-172.5 64q-104 0 -171.5 -75.5t-67.5 -182.5q0 -115 68.5 -186.5t180.5 -71.5q98 0 151 54h127q-83 -152 -282 -152q-153 0 -251 101.5t-98 254.5q0 148 97.5 252t245.5 104q152 0 243.5 -90.5
t91.5 -228.5q0 -89 -42 -140t-106 -51q-65 0 -98 50q-42 -50 -106 -50t-108 44t-44 110t41.5 109.5t102.5 43.5q21 0 39 -6t25 -12l8 -6v21h96zM428 349q0 25 -17 42.5t-42 17.5t-41 -17t-16 -43t16 -43t41 -17t42 17.5t17 42.5z" />
    <glyph glyph-name="A" unicode="A" horiz-adv-x="650" 
d="M640 0h-117l-42 115h-312l-42 -115h-117l259 700h112zM325 550l-119 -329h238z" />
    <glyph glyph-name="B" unicode="B" horiz-adv-x="589" 
d="M498 519q0 -40 -19 -72.5t-46 -47.5q44 -22 76 -69.5t32 -107.5q0 -95 -65.5 -158.5t-158.5 -63.5h-233v700h228q86 0 136 -50t50 -131zM196 338v-232h116q54 0 85.5 32t31.5 84t-31.5 84t-85.5 32h-116zM196 594v-150h116q36 0 56 20t20 55t-20 55t-56 20h-116z" />
    <glyph glyph-name="C" unicode="C" horiz-adv-x="780" 
d="M160 350q0 -106 65.5 -178t166.5 -72q102 0 167 71t65 179h114q0 -149 -99.5 -252.5t-246.5 -103.5t-246.5 103.5t-99.5 252.5t99.5 252.5t246.5 103.5q161 0 266 -128l-78 -78q-69 100 -188 100q-101 0 -166.5 -72t-65.5 -178z" />
    <glyph glyph-name="D" unicode="D" horiz-adv-x="680" 
d="M84 700h205q152 0 248.5 -95t96.5 -255t-96.5 -255t-248.5 -95h-205v700zM292 594h-96v-488h96q99 0 163.5 65t64.5 179t-64.5 179t-163.5 65z" />
    <glyph glyph-name="E" unicode="E" horiz-adv-x="581" 
d="M84 0v700h439v-106h-327v-188h159v-106h-159v-194h333v-106h-445z" />
    <glyph glyph-name="F" unicode="F" horiz-adv-x="573" 
d="M84 0v700h445v-106h-333v-188h171v-106h-171v-300h-112z" />
    <glyph glyph-name="G" unicode="G" horiz-adv-x="781" 
d="M619 0v95q-82 -101 -227 -101q-147 0 -246.5 103.5t-99.5 252.5t99.5 252.5t246.5 103.5q161 0 266 -128l-78 -78q-69 100 -188 100q-101 0 -166.5 -72t-65.5 -178t65.5 -178t166.5 -72q90 0 150.5 54t76.5 146h-231v106h335v-406h-104z" />
    <glyph glyph-name="H" unicode="H" horiz-adv-x="629" 
d="M84 700h112v-294h237v294h112v-700h-112v300h-237v-300h-112v700z" />
    <glyph glyph-name="I" unicode="I" horiz-adv-x="422" 
d="M373 700v-106h-106v-488h106v-106h-324v106h106v488h-106v106h324z" />
    <glyph glyph-name="J" unicode="J" horiz-adv-x="540" 
d="M287 700h188v-463q0 -108 -60.5 -175.5t-164.5 -67.5q-97 0 -161 64.5t-64 160.5h112q0 -51 31 -85t82 -34q55 0 84 35t29 99v360h-76v106z" />
    <glyph glyph-name="K" unicode="K" horiz-adv-x="592" 
d="M196 700v-244l170 244h132l-168 -236l254 -464h-131l-196 361l-61 -85v-276h-112v700h112z" />
    <glyph glyph-name="L" unicode="L" horiz-adv-x="544" 
d="M84 0v700h112v-594h333v-106h-445z" />
    <glyph glyph-name="M" unicode="M" horiz-adv-x="860" 
d="M84 0v700h124l222 -540l222 540h124v-700h-112v444l-184 -444h-100l-184 444v-444h-112z" />
    <glyph glyph-name="N" unicode="N" horiz-adv-x="629" 
d="M84 0v700h124l225 -482v482h112v-700h-124l-225 482v-482h-112z" />
    <glyph glyph-name="O" unicode="O" horiz-adv-x="784" 
d="M738 350q0 -149 -99.5 -252.5t-246.5 -103.5t-246.5 103.5t-99.5 252.5t99.5 252.5t246.5 103.5t246.5 -103.5t99.5 -252.5zM624 350q0 106 -65.5 178t-166.5 72t-166.5 -72t-65.5 -178t65.5 -178t166.5 -72t166.5 72t65.5 178z" />
    <glyph glyph-name="P" unicode="P" horiz-adv-x="569" 
d="M84 0v700h233q97 0 159.5 -61.5t62.5 -160.5t-62.5 -160.5t-159.5 -61.5h-121v-256h-112zM196 594v-232h121q52 0 83 32t31 84t-31 84t-83 32h-121z" />
    <glyph glyph-name="Q" unicode="Q" horiz-adv-x="784" 
d="M630 -12l-58 57q-82 -51 -180 -51q-147 0 -246.5 103.5t-99.5 252.5t99.5 252.5t246.5 103.5t246.5 -103.5t99.5 -252.5q0 -135 -84 -235l51 -52zM160 350q0 -106 65.5 -178t166.5 -72q57 0 102 24l-102 101l75 75l108 -107q49 67 49 157q0 106 -65.5 178t-166.5 72
t-166.5 -72t-65.5 -178z" />
    <glyph glyph-name="R" unicode="R" horiz-adv-x="526" 
d="M84 700h205q86 0 143.5 -53.5t57.5 -146.5q0 -80 -45 -131t-114 -65l159 -304h-128l-150 300h-16v-300h-112v700zM196 594v-188h94q44 0 67 26t23 68t-23 68t-67 26h-94z" />
    <glyph glyph-name="S" unicode="S" horiz-adv-x="538" 
d="M188 526q0 -19 6.5 -32t24 -23.5t31.5 -16.5t46 -16.5t51 -17.5q143 -54 143 -198q0 -97 -65 -162.5t-160 -65.5t-160 65.5t-65 159.5h112q0 -51 30.5 -85t82.5 -34t82.5 33t30.5 86q0 25 -8 44.5t-19 31t-31.5 21.5t-38 15.5l-46 14.5t-47.5 16q-50 19 -80 60.5
t-30 97.5q0 81 52.5 133.5t131.5 52.5q113 0 166 -90l-75 -75q-12 28 -36 43.5t-52 15.5q-34 0 -55.5 -21t-21.5 -53z" />
    <glyph glyph-name="T" unicode="T" horiz-adv-x="462" 
d="M16 594v106h430v-106h-159v-594h-112v594h-159z" />
    <glyph glyph-name="U" unicode="U" horiz-adv-x="586" 
d="M409 700h112v-475q0 -102 -64.5 -166.5t-163.5 -64.5t-163.5 64.5t-64.5 166.5v475h112v-481q0 -54 31.5 -86.5t84.5 -32.5t84.5 32.5t31.5 86.5v481z" />
    <glyph glyph-name="V" unicode="V" horiz-adv-x="648" 
d="M268 0l-260 700h118l198 -547l198 547h118l-260 -700h-112z" />
    <glyph glyph-name="W" unicode="W" horiz-adv-x="900" 
d="M267 700h112l71 -213l71 213h112l-128 -372l61 -178l198 550h118l-260 -700h-112l-60 173l-60 -173h-112l-260 700h118l198 -550l61 178z" />
    <glyph glyph-name="X" unicode="X" horiz-adv-x="600" 
d="M241 428l-147 272h126l80 -157l80 157h126l-147 -272l232 -428h-126l-165 314l-165 -314h-126z" />
    <glyph glyph-name="Y" unicode="Y" horiz-adv-x="504" 
d="M5 700h118l129 -286l129 286h118l-191 -400v-300h-112v300z" />
    <glyph glyph-name="Z" unicode="Z" horiz-adv-x="623" 
d="M126 300v100h130l141 194h-323v106h461v-94l-149 -206h54v-100h-127l-140 -194h407v-106h-545v94l149 206h-58z" />
    <glyph glyph-name="bracketleft" unicode="[" horiz-adv-x="319" 
d="M184 706v-712h106v-94h-206v900h206v-94h-106z" />
    <glyph glyph-name="backslash" unicode="\" horiz-adv-x="474" 
d="M99 800l365 -861l-91 -39l-365 861z" />
    <glyph glyph-name="bracketright" unicode="]" horiz-adv-x="319" 
d="M135 -6v712h-106v94h206v-900h-206v94h106z" />
    <glyph glyph-name="asciicircum" unicode="^" 
d="M87 400l-70 71l280 279l280 -279l-70 -71l-210 211z" />
    <glyph glyph-name="underscore" unicode="_" horiz-adv-x="598" 
d="M25 -106v100h548v-100h-548z" />
    <glyph glyph-name="grave" unicode="`" horiz-adv-x="334" 
d="M293 661l-27 -97l-241 65l27 97z" />
    <glyph glyph-name="a" unicode="a" horiz-adv-x="624" 
d="M435 500h112v-500h-112v52q-18 -23 -57 -40.5t-86 -17.5q-108 0 -179.5 72t-71.5 184t71.5 184t179.5 72q46 0 85.5 -17.5t57.5 -40.5v52zM439 250q0 62 -41.5 106t-101.5 44q-62 0 -104.5 -44t-42.5 -106t42.5 -106t104.5 -44q60 0 101.5 44t41.5 106z" />
    <glyph glyph-name="b" unicode="b" horiz-adv-x="623" 
d="M187 0h-110v700l110 12v-264q53 58 147 58q112 0 180 -69.5t68 -186.5t-68 -186.5t-180 -69.5q-87 0 -147 58v-52zM185 250q0 -65 40 -107.5t104 -42.5q65 0 105 42.5t40 107.5t-40 107.5t-105 42.5q-64 0 -104 -42.5t-40 -107.5z" />
    <glyph glyph-name="c" unicode="c" horiz-adv-x="591" 
d="M153 250q0 -68 40 -110t104 -42t104.5 42.5t40.5 109.5h110q0 -109 -73 -182.5t-182 -73.5q-110 0 -183 73t-73 183t73 183t183 73q109 0 183 -76l-81 -73q-42 45 -102 45q-64 0 -104 -42t-40 -110z" />
    <glyph glyph-name="d" unicode="d" horiz-adv-x="623" 
d="M546 0h-110v52q-60 -58 -147 -58q-112 0 -180 69.5t-68 186.5t68 186.5t180 69.5q94 0 147 -58v252l110 12v-712zM438 250q0 65 -40 107.5t-104 42.5q-65 0 -105 -42.5t-40 -107.5t40 -107.5t105 -42.5q64 0 104 42.5t40 107.5z" />
    <glyph glyph-name="e" unicode="e" horiz-adv-x="591" 
d="M546 212h-389q9 -48 48.5 -81t92.5 -33q82 0 113 48h131q-26 -68 -92.5 -110t-151.5 -42q-108 0 -182.5 74.5t-74.5 181.5t74 181.5t180 74.5t180 -74.5t74 -181.5q0 -20 -3 -38zM295 404q-46 0 -83.5 -27t-49.5 -67h266q-12 40 -49.5 67t-83.5 27z" />
    <glyph glyph-name="f" unicode="f" horiz-adv-x="414" 
d="M136 500v76q0 65 39 97.5t96 32.5q71 0 108 -46l-74 -73q-9 15 -29 15q-14 0 -22 -9t-8 -24v-69h160v-104h-160v-396h-110v396h-101v104h101z" />
    <glyph glyph-name="g" unicode="g" horiz-adv-x="536" 
d="M56 303q0 86 57 144.5t144 58.5q63 0 102 -29v23h110v-197q0 -91 -67 -146q95 -67 95 -182q0 -103 -67 -167t-167 -64q-91 0 -154 52.5t-78 138.5h114q27 -87 118 -87q55 0 88.5 35t33.5 92t-33.5 91.5t-88.5 34.5q-35 0 -64.5 -18.5t-44.5 -47.5l-80 79q21 28 49 43
q-67 58 -67 146zM166 303q0 -44 27.5 -71t69.5 -27t69 27t27 71t-27 71.5t-69 27.5q-43 0 -70 -27t-27 -72z" />
    <glyph glyph-name="h" unicode="h" horiz-adv-x="590" 
d="M77 0v700l110 12v-269q53 63 143 63t141 -53.5t51 -152.5v-300h-110v276q0 126 -109 126q-53 0 -84.5 -35.5t-31.5 -90.5v-276h-110z" />
    <glyph glyph-name="i" unicode="i" horiz-adv-x="264" 
d="M77 0v500h110v-500h-110zM58 631q0 31 21.5 53t52.5 22t52.5 -22t21.5 -53t-21.5 -53t-52.5 -22t-52.5 22t-21.5 53z" />
    <glyph glyph-name="j" unicode="j" horiz-adv-x="264" 
d="M77 -262v762h110v-750zM58 631q0 31 21.5 53t52.5 22t52.5 -22t21.5 -53t-21.5 -53t-52.5 -22t-52.5 22t-21.5 53z" />
    <glyph glyph-name="k" unicode="k" horiz-adv-x="537" 
d="M187 331l114 169h126l-105 -150l208 -350h-125l-151 255l-67 -97v-158h-110v700l110 12v-381z" />
    <glyph glyph-name="l" unicode="l" horiz-adv-x="264" 
d="M77 0v700l110 12v-712h-110z" />
    <glyph glyph-name="m" unicode="m" horiz-adv-x="831" 
d="M77 0v500h110v-57q46 63 130 63q89 0 131 -69q32 34 66.5 51.5t84.5 17.5q164 0 164 -178v-328h-110v300q0 102 -89 102q-39 0 -64 -27t-25 -75v-300h-110v300q0 49 -23 75.5t-66 26.5q-39 0 -64 -27t-25 -75v-300h-110z" />
    <glyph glyph-name="n" unicode="n" horiz-adv-x="584" 
d="M77 0v500h110v-57q48 63 137 63q93 0 142.5 -53t49.5 -153v-300h-110v276q0 126 -109 126q-53 0 -81.5 -34.5t-28.5 -91.5v-276h-110z" />
    <glyph glyph-name="o" unicode="o" 
d="M41 250q0 110 72.5 183t183.5 73t183.5 -73t72.5 -183t-72.5 -183t-183.5 -73t-183.5 73t-72.5 183zM153 250q0 -66 40 -108t104 -42t104 42t40 108t-40 108t-104 42t-104 -42t-40 -108z" />
    <glyph glyph-name="p" unicode="p" horiz-adv-x="623" 
d="M77 500h110v-52q60 58 147 58q112 0 180 -69.5t68 -186.5t-68 -186.5t-180 -69.5q-94 0 -147 58v-302l-110 -12v762zM185 250q0 -65 40 -107.5t104 -42.5q65 0 105 42.5t40 107.5t-40 107.5t-105 42.5q-64 0 -104 -42.5t-40 -107.5z" />
    <glyph glyph-name="q" unicode="q" horiz-adv-x="623" 
d="M436 500h110v-750l-110 -12v314q-53 -58 -147 -58q-112 0 -180 69.5t-68 186.5t68 186.5t180 69.5q87 0 147 -58v52zM438 250q0 65 -40 107.5t-104 42.5q-65 0 -105 -42.5t-40 -107.5t40 -107.5t105 -42.5q64 0 104 42.5t40 107.5z" />
    <glyph glyph-name="r" unicode="r" horiz-adv-x="345" 
d="M77 0v500h110v-52q43 58 129 58v-106h-10q-53 0 -86 -34.5t-33 -89.5v-276h-110z" />
    <glyph glyph-name="s" unicode="s" horiz-adv-x="421" 
d="M38 165h105q0 -30 20 -48.5t46 -18.5q29 0 46.5 16.5t17.5 45.5q0 14 -4.5 24.5t-9.5 16.5t-17.5 12t-18.5 8t-24 6.5t-24 6.5q-44 12 -74 45t-30 89q0 59 40 98.5t98 39.5q75 0 119 -64l-68 -67q-13 33 -44 33q-18 0 -29 -12t-11 -28t10.5 -26t23 -14t37.5 -11t39 -12
q97 -36 97 -143q0 -75 -49 -121.5t-125 -46.5t-123.5 49t-47.5 122z" />
    <glyph glyph-name="t" unicode="t" horiz-adv-x="411" 
d="M120 500v200l110 12v-212h150v-104h-150v-396h-110v396h-101v104h101z" />
    <glyph glyph-name="u" unicode="u" horiz-adv-x="584" 
d="M507 500v-500h-110v57q-48 -63 -137 -63q-93 0 -142.5 53t-49.5 153v300h110v-276q0 -126 109 -126q53 0 81.5 34.5t28.5 91.5v276h110z" />
    <glyph glyph-name="v" unicode="v" horiz-adv-x="486" 
d="M5 500h118l120 -344l120 344h118l-184 -500h-108z" />
    <glyph glyph-name="w" unicode="w" horiz-adv-x="738" 
d="M228 500h108l33 -104l33 104h108l-87 -231l43 -128l132 359h112l-197 -500h-100l-44 131l-44 -131h-100l-197 500h112l132 -359l43 128z" />
    <glyph glyph-name="x" unicode="x" horiz-adv-x="510" 
d="M375 0l-120 196l-120 -196h-128l187 296l-130 204h128l63 -104l63 104h128l-130 -204l187 -296h-128z" />
    <glyph glyph-name="y" unicode="y" horiz-adv-x="489" 
d="M6 500h114l124 -291l124 291h114l-183 -412v-338l-110 -12v350z" />
    <glyph glyph-name="z" unicode="z" horiz-adv-x="537" 
d="M58 396v104h419v-94l-290 -302h308v-104h-455v94l290 302h-272z" />
    <glyph glyph-name="braceleft" unicode="{" horiz-adv-x="320" 
d="M185 250v-144q0 -48 28.5 -80t77.5 -32v-94q-92 0 -149 56t-57 150v139q0 58 -54 58v94q54 0 54 58v139q0 94 57 150t149 56v-94q-49 0 -77.5 -32t-28.5 -80v-144q0 -64 -46 -100q46 -36 46 -100z" />
    <glyph glyph-name="bar" unicode="|" horiz-adv-x="268" 
d="M84 -100v900h100v-900h-100z" />
    <glyph glyph-name="braceright" unicode="}" horiz-adv-x="320" 
d="M135 106v144q0 64 46 100q-46 36 -46 100v144q0 48 -28.5 80t-77.5 32v94q92 0 149 -56t57 -150v-139q0 -58 54 -58v-94q-54 0 -54 -58v-139q0 -94 -57 -150t-149 -56v94q49 0 77.5 32t28.5 80z" />
    <glyph glyph-name="asciitilde" unicode="~" horiz-adv-x="555" 
d="M402 406h103q0 -52 -32.5 -82t-87.5 -30q-24 0 -106 14t-98 14q-28 0 -28 -22h-103q0 52 32.5 82t87.5 30q24 0 106 -14t98 -14q28 0 28 22z" />
    <glyph glyph-name="exclamdown" unicode="&#xa1;" horiz-adv-x="296" 
d="M96 -250v512h112v-512h-112zM78 381q0 31 21.5 53t52.5 22t52.5 -22t21.5 -53t-21.5 -53t-52.5 -22t-52.5 22t-21.5 53z" />
    <glyph glyph-name="cent" unicode="&#xa2;" horiz-adv-x="591" 
d="M153 250q0 -68 40 -110t104 -42t104.5 42.5t40.5 109.5h110q0 -96 -57.5 -165.5t-147.5 -85.5v-99h-100v99q-91 16 -148.5 85t-57.5 166t57.5 166t148.5 85v99h100v-99q74 -12 133 -71l-81 -73q-42 45 -102 45q-64 0 -104 -42t-40 -110z" />
    <glyph glyph-name="sterling" unicode="&#xa3;" horiz-adv-x="582" 
d="M133 400v122q0 77 52 130.5t132 53.5q113 0 167 -104l-76 -68q-34 66 -91 66q-37 0 -56.5 -21.5t-19.5 -60.5v-118h157v-100h-157v-134q0 -48 -15 -66h169q54 0 54 54h100q0 -66 -40.5 -110t-107.5 -44h-323v100q24 2 39.5 17.5t15.5 39.5v143h-94v100h94z" />
    <glyph glyph-name="currency" unicode="&#xa4;" horiz-adv-x="674" 
d="M544 224l86 -87l-78 -78l-87 87q-53 -36 -128 -36t-128 36l-87 -87l-78 78l86 87q-35 62 -35 128t35 128l-86 87l78 78l87 -87q56 36 128 36t128 -36l87 87l78 -78l-86 -87q35 -62 35 -128t-35 -128zM467 352q0 59 -36.5 97.5t-93.5 38.5t-93.5 -38.5t-36.5 -97.5
t36.5 -97.5t93.5 -38.5t93.5 38.5t36.5 97.5z" />
    <glyph glyph-name="yen" unicode="&#xa5;" horiz-adv-x="488" 
d="M21 180v100h166v20l-8 20h-158v100h113l-128 280h118l120 -279l120 279h118l-128 -280h113v-100h-158l-8 -20v-20h166v-100h-167v-180h-112v180h-167z" />
    <glyph glyph-name="brokenbar" unicode="&#xa6;" horiz-adv-x="268" 
d="M84 -100v394h100v-394h-100zM184 800v-394h-100v394h100z" />
    <glyph glyph-name="section" unicode="&#xa7;" horiz-adv-x="538" 
d="M191 526q0 -19 6.5 -32.5t24.5 -24t31 -16t46.5 -16.5l50.5 -17q138 -50 138 -198q0 -67 -33 -123q35 -51 35 -121q0 -106 -63 -170t-162 -64q-97 0 -161 68t-64 163h112q0 -52 30 -88.5t83 -36.5t83 34t30 91q0 30 -8.5 51t-30 35t-38.5 21t-54 18.5t-56 18.5
q-50 19 -80 60t-30 97q0 76 53 123q-55 49 -55 125q0 80 54 131t132 51q113 0 166 -90l-75 -75q-26 59 -85 59q-34 0 -57 -20.5t-23 -53.5zM191 282q0 -19 6.5 -32.5t24.5 -24t31 -16t46.5 -16.5l50.5 -17l18 -8q12 27 12 53q0 46 -23 69.5t-68 39.5q-47 16 -59 19
q-39 -20 -39 -67z" />
    <glyph glyph-name="dieresis" unicode="&#xa8;" horiz-adv-x="411" 
d="M16 651q0 31 21.5 53t52.5 22t52.5 -22t21.5 -53t-21.5 -53t-52.5 -22t-52.5 22t-21.5 53zM247 651q0 31 21.5 53t52.5 22t52.5 -22t21.5 -53t-21.5 -53t-52.5 -22t-52.5 22t-21.5 53z" />
    <glyph glyph-name="copyright" unicode="&#xa9;" horiz-adv-x="780" 
d="M242 350q0 -72 39.5 -118t110.5 -46q56 0 97.5 37.5t50.5 93.5h75q-11 -85 -74 -143t-149 -58q-98 0 -161.5 67.5t-63.5 166.5t63.5 166.5t161.5 67.5q104 0 171 -85l-51 -52q-45 67 -120 67q-71 0 -110.5 -46t-39.5 -118zM44 350q0 149 99 252.5t247 103.5t247 -103.5
t99 -252.5t-99 -252.5t-247 -103.5t-247 103.5t-99 252.5zM119 350q0 -120 78 -203t193 -83t193 83t78 203t-78 203t-193 83t-193 -83t-78 -203z" />
    <glyph glyph-name="ordfeminine" unicode="&#xaa;" horiz-adv-x="399" 
d="M281 700h67v-300h-67v31q-31 -35 -86 -35q-67 0 -109 43t-42 111t42.5 112t108.5 44q58 0 86 -37v31zM282 550q0 38 -24 65t-61 27q-38 0 -63 -27t-25 -65q0 -37 25 -63.5t63 -26.5q37 0 61 26t24 64zM62 300v58h286v-58h-286z" />
    <glyph glyph-name="guillemotleft" unicode="&#xab;" horiz-adv-x="606" 
d="M359 120l-71 -70l-249 250l249 250l71 -70l-180 -180zM575 120l-71 -70l-249 250l249 250l71 -70l-180 -180z" />
    <glyph glyph-name="logicalnot" unicode="&#xac;" horiz-adv-x="574" 
d="M57 200v100h457v-200h-104v100h-353z" />
    <glyph glyph-name="registered" unicode="&#xae;" horiz-adv-x="780" 
d="M44 350q0 149 99 252.5t247 103.5t247 -103.5t99 -252.5t-99 -252.5t-247 -103.5t-247 103.5t-99 252.5zM119 350q0 -120 78 -203t193 -83t193 83t78 203t-78 203t-193 83t-193 -83t-78 -203zM275 569h130q53 0 90 -35t37 -94q0 -50 -29 -83.5t-72 -42.5l101 -186h-81
l-95 183h-6v-183h-75v441zM350 499v-118h49q28 0 43 16t15 43t-15 43t-43 16h-49z" />
    <glyph glyph-name="macron" unicode="&#xaf;" horiz-adv-x="397" 
d="M41 750v100h315v-100h-315z" />
    <glyph glyph-name="degree" unicode="&#xb0;" horiz-adv-x="366" 
d="M58 581q0 53 36 89t89 36t89 -36t36 -89t-36 -89t-89 -36t-89 36t-36 89zM140 581q0 -18 12 -30.5t31 -12.5t31 12.5t12 30.5t-12 30.5t-31 12.5t-31 -12.5t-12 -30.5z" />
    <glyph glyph-name="plusminus" unicode="&#xb1;" horiz-adv-x="572" 
d="M57 326v100h175v178h105v-178h175v-100h-175v-178h-105v178h-175zM57 0v100h455v-100h-455z" />
    <glyph glyph-name="twosuperior" unicode="&#xb2;" horiz-adv-x="320" 
d="M54 400v59q0 74 62 101q8 4 23.5 9t22.5 8t13 11t6 19q0 13 -9.5 22.5t-24.5 9.5q-28 0 -41 -34l-46 45q30 56 91 56q43 0 70.5 -28.5t27.5 -66.5q0 -70 -76 -95q-27 -8 -39 -17.5t-12 -27.5v-5h127v-66h-195z" />
    <glyph glyph-name="threesuperior" unicode="&#xb3;" horiz-adv-x="325" 
d="M134 626l-45 44q11 16 31 26t41 10q39 0 61 -21.5t22 -58.5q0 -33 -23 -54q42 -25 42 -74t-30 -76.5t-75 -27.5q-48 0 -75 30t-29 76h67q1 -18 11.5 -29t25.5 -11q17 0 27 11t10 27q0 17 -10.5 27.5t-26.5 10.5h-18v62h16q20 0 20 21t-20 21q-15 0 -22 -14z" />
    <glyph glyph-name="acute" unicode="&#xb4;" horiz-adv-x="334" 
d="M68 564l-27 97l241 65l27 -97z" />
    <glyph glyph-name="mu" unicode="&#xb5;" horiz-adv-x="593" 
d="M77 -262v762h110v-276q0 -126 109 -126q53 0 81.5 34.5t28.5 91.5v276h110v-500h-110v57q-48 -63 -137 -63q-45 0 -82 13v-257z" />
    <glyph glyph-name="mu" unicode="&#x3bc;" horiz-adv-x="593" 
d="M77 -262v762h110v-276q0 -126 109 -126q53 0 81.5 34.5t28.5 91.5v276h110v-500h-110v57q-48 -63 -137 -63q-45 0 -82 13v-257z" />
    <glyph glyph-name="paragraph" unicode="&#xb6;" horiz-adv-x="687" 
d="M278 -262v518q-96 0 -161 63t-65 159t65 159t161 63h350v-106h-76v-844l-112 -12v518h-50v-506zM164 478q0 -52 32.5 -84t81.5 -32v232q-49 0 -81.5 -32t-32.5 -84zM440 362v232h-50v-232h50z" />
    <glyph glyph-name="periodcentered" unicode="&#xb7;" horiz-adv-x="292" 
d="M72 350q0 31 21.5 53t52.5 22t52.5 -22t21.5 -53t-21.5 -53t-52.5 -22t-52.5 22t-21.5 53z" />
    <glyph glyph-name="cedilla" unicode="&#xb8;" horiz-adv-x="246" 
d="M10 -143h82q0 -13 9 -22t22 -9t21.5 9t8.5 22q0 37 -37 37h-75l63 106h80l-23 -40q32 -7 53.5 -33t21.5 -70q0 -47 -33 -80t-80 -33t-80 33t-33 80z" />
    <glyph glyph-name="onesuperior" unicode="&#xb9;" horiz-adv-x="177" 
d="M50 400v300l68 6v-306h-68z" />
    <glyph glyph-name="ordmasculine" unicode="&#xba;" horiz-adv-x="396" 
d="M64 300v58h272v-58h-272zM44 552q0 66 43.5 110t110.5 44t110.5 -44t43.5 -110t-44 -110t-110 -44t-110 44t-44 110zM111 552q0 -39 24 -64.5t63 -25.5q38 0 62 25.5t24 64.5q0 40 -24 65.5t-62 25.5q-39 0 -63 -25.5t-24 -65.5z" />
    <glyph glyph-name="guillemotright" unicode="&#xbb;" horiz-adv-x="606" 
d="M318 50l-71 70l180 180l-180 180l71 70l249 -250zM102 50l-71 70l180 180l-180 180l71 70l249 -250z" />
    <glyph glyph-name="onequarter" unicode="&#xbc;" horiz-adv-x="853" 
d="M545 300l68 6v-139h55v95h68v-95h30v-66h-30v-101h-68v101h-123v199zM67 42l664 664l48 -48l-664 -664zM188 400v300l68 6v-306h-68z" />
    <glyph glyph-name="onehalf" unicode="&#xbd;" horiz-adv-x="853" 
d="M67 42l664 664l48 -48l-664 -664zM526 59v-59h195v66h-127v5q0 18 12 27.5t39 17.5q76 25 76 95q0 38 -27.5 66.5t-70.5 28.5q-61 0 -91 -56l46 -45q13 34 41 34q15 0 24.5 -9.5t9.5 -22.5q0 -11 -6 -19t-13 -11t-22.5 -8t-23.5 -9q-62 -27 -62 -101zM188 400v300l68 6
v-306h-68z" />
    <glyph glyph-name="threequarters" unicode="&#xbe;" horiz-adv-x="853" 
d="M545 300l68 6v-139h55v95h68v-95h30v-66h-30v-101h-68v101h-123v199zM67 42l664 664l48 -48l-664 -664zM201 626l-45 44q10 16 30.5 26t41.5 10q39 0 61 -21.5t22 -58.5q0 -33 -23 -54q42 -25 42 -74t-30 -76.5t-75 -27.5q-48 0 -75 30t-29 76h67q1 -18 11.5 -29
t25.5 -11q17 0 27 11t10 27q0 17 -10.5 27.5t-26.5 10.5h-18v62h16q20 0 20 21t-20 21q-15 0 -22 -14z" />
    <glyph glyph-name="questiondown" unicode="&#xbf;" horiz-adv-x="511" 
d="M229 381q0 31 21.5 53t52.5 22t52.5 -22t21.5 -53t-21.5 -53t-52.5 -22t-52.5 22t-21.5 53zM359 262h-112q0 -22 -4.5 -38.5t-18 -29.5t-22 -19.5t-32.5 -20.5t-35 -21q-46 -29 -70 -69.5t-24 -109.5q0 -91 61 -150.5t162 -59.5q95 0 161.5 62.5t66.5 162.5h-112
q0 -54 -32.5 -86.5t-82.5 -32.5q-51 0 -82 29t-31 78q0 43 19.5 67.5t69.5 52.5q54 30 86 71.5t32 113.5z" />
    <glyph glyph-name="Agrave" unicode="&#xc0;" horiz-adv-x="650" 
d="M640 0h-117l-42 115h-312l-42 -115h-117l259 700h112zM325 550l-119 -329h238zM454 867l-27 -97l-241 65l27 97z" />
    <glyph glyph-name="Aacute" unicode="&#xc1;" horiz-adv-x="650" 
d="M640 0h-117l-42 115h-312l-42 -115h-117l259 700h112zM325 550l-119 -329h238zM209 770l-27 97l241 65l27 -97z" />
    <glyph glyph-name="Acircumflex" unicode="&#xc2;" horiz-adv-x="650" 
d="M640 0h-117l-42 115h-312l-42 -115h-117l259 700h112zM325 550l-119 -329h238zM208 735l-66 67l183 183l183 -183l-66 -67l-117 117z" />
    <glyph glyph-name="Atilde" unicode="&#xc3;" horiz-adv-x="650" 
d="M640 0h-117l-42 115h-312l-42 -115h-117l259 700h112zM325 550l-119 -329h238zM417 876h100q-8 -52 -41 -81.5t-88 -29.5q-32 0 -68 17.5t-50 17.5q-29 0 -37 -26h-100q8 52 41 81.5t88 29.5q32 0 68 -17.5t50 -17.5q29 0 37 26z" />
    <glyph glyph-name="Adieresis" unicode="&#xc4;" horiz-adv-x="650" 
d="M640 0h-117l-42 115h-312l-42 -115h-117l259 700h112zM325 550l-119 -329h238zM136 845q0 31 21.5 53t52.5 22t52.5 -22t21.5 -53t-21.5 -53t-52.5 -22t-52.5 22t-21.5 53zM367 845q0 31 21.5 53t52.5 22t52.5 -22t21.5 -53t-21.5 -53t-52.5 -22t-52.5 22t-21.5 53z" />
    <glyph glyph-name="Aring" unicode="&#xc5;" horiz-adv-x="650" 
d="M640 0h-117l-42 115h-312l-42 -115h-117l259 700h112zM325 550l-119 -329h238zM225 850q0 42 29 71t71 29t71 -29t29 -71t-29 -71t-71 -29t-71 29t-29 71zM297 850q0 -12 8 -20t20 -8t20 8t8 20t-8 20t-20 8t-20 -8t-8 -20z" />
    <glyph glyph-name="AE" unicode="&#xc6;" horiz-adv-x="822" 
d="M325 0v115h-156l-42 -115h-117l259 700h501v-106h-333v-188h165v-106h-165v-194h339v-106h-451zM325 550l-119 -329h119v329z" />
    <glyph glyph-name="Ccedilla" unicode="&#xc7;" horiz-adv-x="780" 
d="M264 -143h82q0 -13 9 -22t22 -9t21.5 9t8.5 22q0 37 -37 37h-75l60 102q-134 13 -221.5 114t-87.5 240q0 149 99.5 252.5t246.5 103.5q161 0 266 -128l-78 -78q-69 100 -188 100q-101 0 -166.5 -72t-65.5 -178t65.5 -178t166.5 -72q102 0 167 71t65 179h114
q0 -137 -85.5 -237t-216.5 -116l-21 -37q32 -7 53.5 -33t21.5 -70q0 -47 -33 -80t-80 -33t-80 33t-33 80z" />
    <glyph glyph-name="Egrave" unicode="&#xc8;" horiz-adv-x="581" 
d="M84 0v700h439v-106h-327v-188h159v-106h-159v-194h333v-106h-445zM450 867l-27 -97l-241 65l27 97z" />
    <glyph glyph-name="Eacute" unicode="&#xc9;" horiz-adv-x="581" 
d="M84 0v700h439v-106h-327v-188h159v-106h-159v-194h333v-106h-445zM212 770l-27 97l241 65l27 -97z" />
    <glyph glyph-name="Ecircumflex" unicode="&#xca;" horiz-adv-x="581" 
d="M84 0v700h439v-106h-327v-188h159v-106h-159v-194h333v-106h-445zM184 745l-66 67l183 183l183 -183l-66 -67l-117 117z" />
    <glyph glyph-name="Edieresis" unicode="&#xcb;" horiz-adv-x="581" 
d="M84 0v700h439v-106h-327v-188h159v-106h-159v-194h333v-106h-445zM117 845q0 31 21.5 53t52.5 22t52.5 -22t21.5 -53t-21.5 -53t-52.5 -22t-52.5 22t-21.5 53zM348 845q0 31 21.5 53t52.5 22t52.5 -22t21.5 -53t-21.5 -53t-52.5 -22t-52.5 22t-21.5 53z" />
    <glyph glyph-name="Igrave" unicode="&#xcc;" horiz-adv-x="422" 
d="M373 700v-106h-106v-488h106v-106h-324v106h106v488h-106v106h324zM346 867l-27 -97l-241 65l27 97z" />
    <glyph glyph-name="Iacute" unicode="&#xcd;" horiz-adv-x="422" 
d="M373 594v106h-324v-106h106v-488h-106v-106h324v106h-106v488h106zM96 770l-27 97l241 65l27 -97z" />
    <glyph glyph-name="Icircumflex" unicode="&#xce;" horiz-adv-x="422" 
d="M373 594v106h-324v-106h106v-488h-106v-106h324v106h-106v488h106zM95 745l-66 67l183 183l183 -183l-66 -67l-117 117z" />
    <glyph glyph-name="Idieresis" unicode="&#xcf;" horiz-adv-x="422" 
d="M373 594v106h-324v-106h106v-488h-106v-106h324v106h-106v488h106zM21 845q0 31 21.5 53t52.5 22t52.5 -22t21.5 -53t-21.5 -53t-52.5 -22t-52.5 22t-21.5 53zM252 845q0 31 21.5 53t52.5 22t52.5 -22t21.5 -53t-21.5 -53t-52.5 -22t-52.5 22t-21.5 53z" />
    <glyph glyph-name="Eth" unicode="&#xd0;" horiz-adv-x="733" 
d="M137 700h205q152 0 248.5 -95t96.5 -255t-96.5 -255t-248.5 -95h-205v300h-115v106h115v294zM345 594h-96v-188h115v-106h-115v-194h96q99 0 163.5 65t64.5 179t-64.5 179t-163.5 65z" />
    <glyph glyph-name="Ntilde" unicode="&#xd1;" horiz-adv-x="629" 
d="M84 0v700h124l225 -482v482h112v-700h-124l-225 482v-482h-112zM406 876h100q-8 -52 -41 -81.5t-88 -29.5q-31 0 -68 17.5t-50 17.5q-29 0 -37 -26h-100q8 52 41 81.5t88 29.5q31 0 68 -17.5t50 -17.5q29 0 37 26z" />
    <glyph glyph-name="Ograve" unicode="&#xd2;" horiz-adv-x="784" 
d="M738 350q0 -149 -99.5 -252.5t-246.5 -103.5t-246.5 103.5t-99.5 252.5t99.5 252.5t246.5 103.5t246.5 -103.5t99.5 -252.5zM624 350q0 106 -65.5 178t-166.5 72t-166.5 -72t-65.5 -178t65.5 -178t166.5 -72t166.5 72t65.5 178zM528 861l-27 -97l-241 65l27 97z" />
    <glyph glyph-name="Oacute" unicode="&#xd3;" horiz-adv-x="784" 
d="M738 350q0 149 -99.5 252.5t-246.5 103.5t-246.5 -103.5t-99.5 -252.5t99.5 -252.5t246.5 -103.5t246.5 103.5t99.5 252.5zM624 350q0 -106 -65.5 -178t-166.5 -72t-166.5 72t-65.5 178t65.5 178t166.5 72t166.5 -72t65.5 -178zM270 770l-27 97l241 65l27 -97z" />
    <glyph glyph-name="Ocircumflex" unicode="&#xd4;" horiz-adv-x="784" 
d="M738 350q0 149 -99.5 252.5t-246.5 103.5t-246.5 -103.5t-99.5 -252.5t99.5 -252.5t246.5 -103.5t246.5 103.5t99.5 252.5zM624 350q0 -106 -65.5 -178t-166.5 -72t-166.5 72t-65.5 178t65.5 178t166.5 72t166.5 -72t65.5 -178zM275 740l-66 67l183 183l183 -183l-66 -67
l-117 117z" />
    <glyph glyph-name="Otilde" unicode="&#xd5;" horiz-adv-x="784" 
d="M738 350q0 149 -99.5 252.5t-246.5 103.5t-246.5 -103.5t-99.5 -252.5t99.5 -252.5t246.5 -103.5t246.5 103.5t99.5 252.5zM624 350q0 -106 -65.5 -178t-166.5 -72t-166.5 72t-65.5 178t65.5 178t166.5 72t166.5 -72t65.5 -178zM484 876h100q-8 -52 -41 -81.5t-88 -29.5
q-31 0 -68 17.5t-50 17.5q-29 0 -37 -26h-100q8 52 41 81.5t88 29.5q31 0 68 -17.5t50 -17.5q29 0 37 26z" />
    <glyph glyph-name="Odieresis" unicode="&#xd6;" horiz-adv-x="784" 
d="M738 350q0 149 -99.5 252.5t-246.5 103.5t-246.5 -103.5t-99.5 -252.5t99.5 -252.5t246.5 -103.5t246.5 103.5t99.5 252.5zM624 350q0 -106 -65.5 -178t-166.5 -72t-166.5 72t-65.5 178t65.5 178t166.5 72t166.5 -72t65.5 -178zM203 845q0 31 21.5 53t52.5 22t52.5 -22
t21.5 -53t-21.5 -53t-52.5 -22t-52.5 22t-21.5 53zM434 845q0 31 21.5 53t52.5 22t52.5 -22t21.5 -53t-21.5 -53t-52.5 -22t-52.5 22t-21.5 53z" />
    <glyph glyph-name="multiply" unicode="&#xd7;" horiz-adv-x="676" 
d="M58 490l71 70l209 -209l209 209l71 -70l-210 -210l210 -210l-71 -70l-209 209l-209 -209l-71 70l210 210z" />
    <glyph glyph-name="Oslash" unicode="&#xd8;" horiz-adv-x="784" 
d="M738 350q0 -149 -99.5 -252.5t-246.5 -103.5q-48 0 -92 12l-22 -51l-91 39l22 51q-76 48 -119.5 128.5t-43.5 176.5q0 149 99.5 252.5t246.5 103.5q48 0 92 -12l22 51l91 -39l-22 -51q76 -48 119.5 -128.5t43.5 -176.5zM392 600q-101 0 -166.5 -72t-65.5 -178
q0 -132 92 -203l190 448q-20 5 -50 5zM624 350q0 63 -24 116t-68 87l-190 -448q20 -5 50 -5q101 0 166.5 72t65.5 178z" />
    <glyph glyph-name="Ugrave" unicode="&#xd9;" horiz-adv-x="586" 
d="M409 700h112v-475q0 -102 -64.5 -166.5t-163.5 -64.5t-163.5 64.5t-64.5 166.5v475h112v-481q0 -54 31.5 -86.5t84.5 -32.5t84.5 32.5t31.5 86.5v481zM433 867l-27 -97l-241 65l27 97z" />
    <glyph glyph-name="Uacute" unicode="&#xda;" horiz-adv-x="586" 
d="M409 700h112v-475q0 -102 -64.5 -166.5t-163.5 -64.5t-163.5 64.5t-64.5 166.5v475h112v-481q0 -54 31.5 -86.5t84.5 -32.5t84.5 32.5t31.5 86.5v481zM180 770l-27 97l241 65l27 -97z" />
    <glyph glyph-name="Ucircumflex" unicode="&#xdb;" horiz-adv-x="586" 
d="M409 700h112v-475q0 -102 -64.5 -166.5t-163.5 -64.5t-163.5 64.5t-64.5 166.5v475h112v-481q0 -54 31.5 -86.5t84.5 -32.5t84.5 32.5t31.5 86.5v481zM176 745l-66 67l183 183l183 -183l-66 -67l-117 117z" />
    <glyph glyph-name="Udieresis" unicode="&#xdc;" horiz-adv-x="586" 
d="M409 700h112v-475q0 -102 -64.5 -166.5t-163.5 -64.5t-163.5 64.5t-64.5 166.5v475h112v-481q0 -54 31.5 -86.5t84.5 -32.5t84.5 32.5t31.5 86.5v481zM104 845q0 31 21.5 53t52.5 22t52.5 -22t21.5 -53t-21.5 -53t-52.5 -22t-52.5 22t-21.5 53zM335 845q0 31 21.5 53
t52.5 22t52.5 -22t21.5 -53t-21.5 -53t-52.5 -22t-52.5 22t-21.5 53z" />
    <glyph glyph-name="Yacute" unicode="&#xdd;" horiz-adv-x="504" 
d="M5 700h118l129 -286l129 286h118l-191 -400v-300h-112v300zM141 770l-27 97l241 65l27 -97z" />
    <glyph glyph-name="Thorn" unicode="&#xde;" horiz-adv-x="573" 
d="M84 0v700h112v-128h121q101 0 163.5 -60t62.5 -162t-62.5 -162t-163.5 -60h-121v-128h-112zM196 466v-232h116q57 0 88 31t31 85t-31 85t-88 31h-116z" />
    <glyph glyph-name="germandbls" unicode="&#xdf;" horiz-adv-x="532" 
d="M77 -262v784q0 77 53.5 130.5t134.5 53.5q88 0 137 -51t49 -133q0 -72 -56 -123q43 -27 69.5 -73t26.5 -104q0 -106 -62 -164t-164 -58h-44v104h37q57 0 91 32.5t34 85.5t-34 85t-91 32h-37v104h44q34 0 56 21t22 58q0 38 -22 59t-56 21q-33 0 -55.5 -22t-22.5 -58v-772z
" />
    <glyph glyph-name="agrave" unicode="&#xe0;" horiz-adv-x="624" 
d="M435 500h112v-500h-112v52q-18 -23 -57 -40.5t-86 -17.5q-108 0 -179.5 72t-71.5 184t71.5 184t179.5 72q46 0 85.5 -17.5t57.5 -40.5v52zM439 250q0 62 -41.5 106t-101.5 44q-62 0 -104.5 -44t-42.5 -106t42.5 -106t104.5 -44q60 0 101.5 44t41.5 106zM457 661l-27 -97
l-241 65l27 97z" />
    <glyph glyph-name="aacute" unicode="&#xe1;" horiz-adv-x="624" 
d="M435 500h112v-500h-112v52q-18 -23 -57 -40.5t-86 -17.5q-108 0 -179.5 72t-71.5 184t71.5 184t179.5 72q46 0 85.5 -17.5t57.5 -40.5v52zM439 250q0 62 -41.5 106t-101.5 44q-62 0 -104.5 -44t-42.5 -106t42.5 -106t104.5 -44q60 0 101.5 44t41.5 106zM203 565l-27 97
l241 65l27 -97z" />
    <glyph glyph-name="acircumflex" unicode="&#xe2;" horiz-adv-x="624" 
d="M435 500h112v-500h-112v52q-18 -23 -57 -40.5t-86 -17.5q-108 0 -179.5 72t-71.5 184t71.5 184t179.5 72q46 0 85.5 -17.5t57.5 -40.5v52zM439 250q0 62 -41.5 106t-101.5 44q-62 0 -104.5 -44t-42.5 -106t42.5 -106t104.5 -44q60 0 101.5 44t41.5 106zM217 535l-66 67
l183 183l183 -183l-66 -67l-117 117z" />
    <glyph glyph-name="atilde" unicode="&#xe3;" horiz-adv-x="624" 
d="M435 500h112v-500h-112v52q-18 -23 -57 -40.5t-86 -17.5q-108 0 -179.5 72t-71.5 184t71.5 184t179.5 72q46 0 85.5 -17.5t57.5 -40.5v52zM439 250q0 62 -41.5 106t-101.5 44q-62 0 -104.5 -44t-42.5 -106t42.5 -106t104.5 -44q60 0 101.5 44t41.5 106zM401 676h100
q-8 -52 -41 -81.5t-88 -29.5q-32 0 -68 17.5t-50 17.5q-29 0 -37 -26h-100q8 52 41 81.5t88 29.5q32 0 68 -17.5t50 -17.5q29 0 37 26z" />
    <glyph glyph-name="adieresis" unicode="&#xe4;" horiz-adv-x="624" 
d="M435 500h112v-500h-112v52q-18 -23 -57 -40.5t-86 -17.5q-108 0 -179.5 72t-71.5 184t71.5 184t179.5 72q46 0 85.5 -17.5t57.5 -40.5v52zM439 250q0 62 -41.5 106t-101.5 44q-62 0 -104.5 -44t-42.5 -106t42.5 -106t104.5 -44q60 0 101.5 44t41.5 106zM127 651
q0 31 21.5 53t52.5 22t52.5 -22t21.5 -53t-21.5 -53t-52.5 -22t-52.5 22t-21.5 53zM358 651q0 31 21.5 53t52.5 22t52.5 -22t21.5 -53t-21.5 -53t-52.5 -22t-52.5 22t-21.5 53z" />
    <glyph glyph-name="aring" unicode="&#xe5;" horiz-adv-x="624" 
d="M435 500h112v-500h-112v52q-18 -23 -57 -40.5t-86 -17.5q-108 0 -179.5 72t-71.5 184t71.5 184t179.5 72q46 0 85.5 -17.5t57.5 -40.5v52zM439 250q0 62 -41.5 106t-101.5 44q-62 0 -104.5 -44t-42.5 -106t42.5 -106t104.5 -44q60 0 101.5 44t41.5 106zM196 650
q0 42 29 71t71 29t71 -29t29 -71t-29 -71t-71 -29t-71 29t-29 71zM268 650q0 -12 8 -20t20 -8t20 8t8 20t-8 20t-20 8t-20 -8t-8 -20z" />
    <glyph glyph-name="ae" unicode="&#xe6;" horiz-adv-x="853" 
d="M40 166q0 77 50.5 126.5t126.5 49.5q54 0 88 -32v26q0 66 -67 66q-41 0 -67 -43l-71 71q50 76 143 76q98 0 142 -65q73 65 174 65q87 0 152 -48.5t91 -126.5l-338 -195q41 -38 95 -38q61 0 97.5 34t45.5 94h112q-10 -104 -81.5 -168t-173.5 -64q-82 0 -144 42v-36h-110
v31q-31 -37 -92 -37q-73 0 -123 48t-50 124zM415 250q0 -17 2 -25l238 137q-37 40 -96 40q-64 0 -104 -44.5t-40 -107.5zM150 169q0 -34 22.5 -54.5t57.5 -20.5t57.5 20.5t22.5 54.5t-22.5 54.5t-57.5 20.5t-57.5 -20.5t-22.5 -54.5z" />
    <glyph glyph-name="ccedilla" unicode="&#xe7;" horiz-adv-x="591" 
d="M184 -143h82q0 -13 9 -22t22 -9t21.5 9t8.5 22q0 37 -37 37h-75l60 101q-102 8 -168 79t-66 176q0 110 73 183t183 73q109 0 183 -76l-81 -73q-42 45 -102 45q-64 0 -104 -42t-40 -110t40 -110t104 -42t104.5 42.5t40.5 109.5h110q0 -93 -53.5 -161t-139.5 -88l-24 -41
q32 -7 53.5 -33t21.5 -70q0 -47 -33 -80t-80 -33t-80 33t-33 80z" />
    <glyph glyph-name="egrave" unicode="&#xe8;" horiz-adv-x="591" 
d="M546 212h-389q9 -48 48.5 -81t92.5 -33q82 0 113 48h131q-26 -68 -92.5 -110t-151.5 -42q-108 0 -182.5 74.5t-74.5 181.5t74 181.5t180 74.5t180 -74.5t74 -181.5q0 -20 -3 -38zM295 404q-46 0 -83.5 -27t-49.5 -67h266q-12 40 -49.5 67t-83.5 27zM430 661l-27 -97
l-241 65l27 97z" />
    <glyph glyph-name="eacute" unicode="&#xe9;" horiz-adv-x="591" 
d="M546 212h-389q9 -48 48.5 -81t92.5 -33q82 0 113 48h131q-26 -68 -92.5 -110t-151.5 -42q-108 0 -182.5 74.5t-74.5 181.5t74 181.5t180 74.5t180 -74.5t74 -181.5q0 -20 -3 -38zM295 404q-46 0 -83.5 -27t-49.5 -67h266q-12 40 -49.5 67t-83.5 27zM169 564l-27 97
l241 65l27 -97z" />
    <glyph glyph-name="ecircumflex" unicode="&#xea;" horiz-adv-x="591" 
d="M546 212h-389q9 -48 48.5 -81t92.5 -33q82 0 113 48h131q-26 -68 -92.5 -110t-151.5 -42q-108 0 -182.5 74.5t-74.5 181.5t74 181.5t180 74.5t180 -74.5t74 -181.5q0 -20 -3 -38zM295 404q-46 0 -83.5 -27t-49.5 -67h266q-12 40 -49.5 67t-83.5 27zM179 535l-66 67
l183 183l183 -183l-66 -67l-117 117z" />
    <glyph glyph-name="edieresis" unicode="&#xeb;" horiz-adv-x="591" 
d="M546 212h-389q9 -48 48.5 -81t92.5 -33q82 0 113 48h131q-26 -68 -92.5 -110t-151.5 -42q-108 0 -182.5 74.5t-74.5 181.5t74 181.5t180 74.5t180 -74.5t74 -181.5q0 -20 -3 -38zM295 404q-46 0 -83.5 -27t-49.5 -67h266q-12 40 -49.5 67t-83.5 27zM108 651q0 31 21.5 53
t52.5 22t52.5 -22t21.5 -53t-21.5 -53t-52.5 -22t-52.5 22t-21.5 53zM339 651q0 31 21.5 53t52.5 22t52.5 -22t21.5 -53t-21.5 -53t-52.5 -22t-52.5 22t-21.5 53z" />
    <glyph glyph-name="igrave" unicode="&#xec;" horiz-adv-x="264" 
d="M77 0v500h110v-500h-110zM266 661l-27 -97l-241 65l27 97z" />
    <glyph glyph-name="iacute" unicode="&#xed;" horiz-adv-x="264" 
d="M77 0v500h110v-500h-110zM25 562l-27 97l241 65l27 -97z" />
    <glyph glyph-name="icircumflex" unicode="&#xee;" horiz-adv-x="264" 
d="M77 0v500h110v-500h-110zM15 535l-66 67l183 183l183 -183l-66 -67l-117 117z" />
    <glyph glyph-name="idieresis" unicode="&#xef;" horiz-adv-x="264" 
d="M77 0v500h110v-500h-110zM17 576l-74 75l74 75l74 -75zM247 576l-74 75l74 75l74 -75z" />
    <glyph glyph-name="eth" unicode="&#xf0;" 
d="M271 532l-45 83l42 23l-58 112h112l33 -63l40 22l45 -83l-40 -22l103 -194q50 -98 50 -160q0 -110 -74 -183t-182 -73t-182 73t-74 183q0 107 73.5 181.5t178.5 74.5q21 0 47 -4l-28 52zM151 250q0 -67 40.5 -109.5t105.5 -42.5t105.5 42.5t40.5 109.5t-40.5 109.5
t-105.5 42.5t-105.5 -42.5t-40.5 -109.5z" />
    <glyph glyph-name="ntilde" unicode="&#xf1;" horiz-adv-x="584" 
d="M77 0v500h110v-57q48 63 137 63q93 0 142.5 -53t49.5 -153v-300h-110v276q0 126 -109 126q-53 0 -81.5 -34.5t-28.5 -91.5v-276h-110zM384 676h100q-8 -52 -41 -81.5t-88 -29.5q-31 0 -68 17.5t-50 17.5q-29 0 -37 -26h-100q8 52 41 81.5t88 29.5q31 0 68 -17.5t50 -17.5
q29 0 37 26z" />
    <glyph glyph-name="ograve" unicode="&#xf2;" 
d="M41 250q0 110 72.5 183t183.5 73t183.5 -73t72.5 -183t-72.5 -183t-183.5 -73t-183.5 73t-72.5 183zM153 250q0 -66 40 -108t104 -42t104 42t40 108t-40 108t-104 42t-104 -42t-40 -108zM440 661l-27 -97l-241 65l27 97z" />
    <glyph glyph-name="oacute" unicode="&#xf3;" 
d="M41 250q0 110 72.5 183t183.5 73t183.5 -73t72.5 -183t-72.5 -183t-183.5 -73t-183.5 73t-72.5 183zM153 250q0 -66 40 -108t104 -42t104 42t40 108t-40 108t-104 42t-104 -42t-40 -108zM175 564l-27 97l241 65l27 -97z" />
    <glyph glyph-name="ocircumflex" unicode="&#xf4;" 
d="M41 250q0 110 72.5 183t183.5 73t183.5 -73t72.5 -183t-72.5 -183t-183.5 -73t-183.5 73t-72.5 183zM153 250q0 -66 40 -108t104 -42t104 42t40 108t-40 108t-104 42t-104 -42t-40 -108zM180 535l-66 67l183 183l183 -183l-66 -67l-117 117z" />
    <glyph glyph-name="otilde" unicode="&#xf5;" 
d="M41 250q0 110 72.5 183t183.5 73t183.5 -73t72.5 -183t-72.5 -183t-183.5 -73t-183.5 73t-72.5 183zM153 250q0 -66 40 -108t104 -42t104 42t40 108t-40 108t-104 42t-104 -42t-40 -108zM381 676h100q-8 -52 -41 -81.5t-88 -29.5q-32 0 -68 17.5t-50 17.5q-29 0 -37 -26
h-100q8 52 41 81.5t88 29.5q32 0 68.5 -17.5t49.5 -17.5q29 0 37 26z" />
    <glyph glyph-name="odieresis" unicode="&#xf6;" 
d="M41 250q0 110 72.5 183t183.5 73t183.5 -73t72.5 -183t-72.5 -183t-183.5 -73t-183.5 73t-72.5 183zM153 250q0 -66 40 -108t104 -42t104 42t40 108t-40 108t-104 42t-104 -42t-40 -108zM108 651q0 31 21.5 53t52.5 22t52.5 -22t21.5 -53t-21.5 -53t-52.5 -22t-52.5 22
t-21.5 53zM339 651q0 31 21.5 53t52.5 22t52.5 -22t21.5 -53t-21.5 -53t-52.5 -22t-52.5 22t-21.5 53z" />
    <glyph glyph-name="divide" unicode="&#xf7;" horiz-adv-x="573" 
d="M211 515q0 31 21.5 53t52.5 22t52.5 -22t21.5 -53t-21.5 -53t-52.5 -22t-52.5 22t-21.5 53zM513 300v100h-456v-100h456zM211 185q0 31 21.5 53t52.5 22t52.5 -22t21.5 -53t-21.5 -53t-52.5 -22t-52.5 22t-21.5 53z" />
    <glyph glyph-name="oslash" unicode="&#xf8;" 
d="M41 250q0 110 72.5 183t183.5 73q25 0 53 -5l18 44l91 -39l-17 -41q52 -34 81.5 -90.5t29.5 -124.5q0 -110 -72.5 -183t-183.5 -73q-25 0 -53 5l-18 -44l-91 39l17 41q-52 34 -81.5 90.5t-29.5 124.5zM441 250q0 70 -43 111l-111 -261h10q64 0 104 42t40 108zM153 250
q0 -70 43 -111l111 261h-10q-64 0 -104 -42t-40 -108z" />
    <glyph glyph-name="ugrave" unicode="&#xf9;" horiz-adv-x="584" 
d="M507 500v-500h-110v57q-48 -63 -137 -63q-93 0 -142.5 53t-49.5 153v300h110v-276q0 -126 109 -126q53 0 81.5 34.5t28.5 91.5v276h110zM423 661l-27 -97l-241 65l27 97z" />
    <glyph glyph-name="uacute" unicode="&#xfa;" horiz-adv-x="584" 
d="M507 500v-500h-110v57q-48 -63 -137 -63q-93 0 -142.5 53t-49.5 153v300h110v-276q0 -126 109 -126q53 0 81.5 34.5t28.5 91.5v276h110zM177 564l-27 97l241 65l27 -97z" />
    <glyph glyph-name="ucircumflex" unicode="&#xfb;" horiz-adv-x="584" 
d="M507 500v-500h-110v57q-48 -63 -137 -63q-93 0 -142.5 53t-49.5 153v300h110v-276q0 -126 109 -126q53 0 81.5 34.5t28.5 91.5v276h110zM169 540l-66 67l183 183l183 -183l-66 -67l-117 117z" />
    <glyph glyph-name="udieresis" unicode="&#xfc;" horiz-adv-x="584" 
d="M507 500v-500h-110v57q-48 -63 -137 -63q-93 0 -142.5 53t-49.5 153v300h110v-276q0 -126 109 -126q53 0 81.5 34.5t28.5 91.5v276h110zM96 651q0 31 21.5 53t52.5 22t52.5 -22t21.5 -53t-21.5 -53t-52.5 -22t-52.5 22t-21.5 53zM327 651q0 31 21.5 53t52.5 22t52.5 -22
t21.5 -53t-21.5 -53t-52.5 -22t-52.5 22t-21.5 53z" />
    <glyph glyph-name="yacute" unicode="&#xfd;" horiz-adv-x="489" 
d="M6 500h114l124 -291l124 291h114l-183 -412v-338l-110 -12v350zM133 565l-27 97l241 65l27 -97z" />
    <glyph glyph-name="thorn" unicode="&#xfe;" horiz-adv-x="614" 
d="M189 -250l-112 -12v962l112 12v-264q21 25 59.5 41.5t83.5 16.5q108 0 179.5 -72t71.5 -184t-71.5 -184t-179.5 -72q-91 0 -143 58v-302zM185 250q0 -61 41.5 -105.5t101.5 -44.5q62 0 104.5 44.5t42.5 105.5t-42.5 105.5t-104.5 44.5q-60 0 -101.5 -44.5t-41.5 -105.5z
" />
    <glyph glyph-name="ydieresis" unicode="&#xff;" horiz-adv-x="489" 
d="M6 500h114l124 -291l124 291h114l-183 -412v-338l-110 -12v350zM55 651q0 31 21.5 53t52.5 22t52.5 -22t21.5 -53t-21.5 -53t-52.5 -22t-52.5 22t-21.5 53zM286 651q0 31 21.5 53t52.5 22t52.5 -22t21.5 -53t-21.5 -53t-52.5 -22t-52.5 22t-21.5 53z" />
    <glyph glyph-name="dotlessi" unicode="&#x131;" horiz-adv-x="265" 
d="M77 500h110v-500h-110v500z" />
    <glyph glyph-name="Lslash" unicode="&#x141;" horiz-adv-x="578" 
d="M35 212l-35 100l118 42v346h112v-305l91 33l35 -100l-126 -46v-176h333v-106h-445v242z" />
    <glyph glyph-name="lslash" unicode="&#x142;" horiz-adv-x="387" 
d="M133 700l110 12v-318l93 34l35 -100l-128 -47v-281h-110v242l-83 -30l-35 100l118 42v346z" />
    <glyph glyph-name="OE" unicode="&#x152;" horiz-adv-x="1123" 
d="M626 0v85q-97 -91 -234 -91q-147 0 -246.5 103.5t-99.5 252.5t99.5 252.5t246.5 103.5q135 0 234 -91v85h439v-106h-327v-188h159v-106h-159v-194h333v-106h-445zM624 350q0 106 -65.5 178t-166.5 72t-166.5 -72t-65.5 -178t65.5 -178t166.5 -72t166.5 72t65.5 178z" />
    <glyph glyph-name="oe" unicode="&#x153;" horiz-adv-x="991" 
d="M41 250q0 110 72.5 183t183.5 73q125 0 200 -93q75 93 200 93q87 0 152 -48.5t91 -126.5l-338 -195q41 -38 95 -38q61 0 97.5 34t45.5 94h112q-10 -104 -81.5 -168t-173.5 -64q-124 0 -200 92q-74 -92 -200 -92q-111 0 -183.5 73t-72.5 183zM441 250q0 66 -40 108
t-104 42t-104 -42t-40 -108t40 -108t104 -42t104 42t40 108zM553 250q0 -17 2 -25l238 137q-37 40 -96 40q-64 0 -104 -43t-40 -109z" />
    <glyph glyph-name="Scaron" unicode="&#x160;" horiz-adv-x="538" 
d="M188 526q0 -19 6.5 -32t24 -23.5t31.5 -16.5t46 -16.5t51 -17.5q143 -54 143 -198q0 -97 -65 -162.5t-160 -65.5t-160 65.5t-65 159.5h112q0 -51 30.5 -85t82.5 -34t82.5 33t30.5 86q0 25 -8 44.5t-19 31t-31.5 21.5t-38 15.5l-46 14.5t-47.5 16q-50 19 -80 60.5
t-30 97.5q0 81 52.5 133.5t131.5 52.5q113 0 166 -90l-75 -75q-12 28 -36 43.5t-52 15.5q-34 0 -55.5 -21t-21.5 -53zM383 990l66 -67l-183 -183l-183 183l66 67l117 -117z" />
    <glyph glyph-name="scaron" unicode="&#x161;" horiz-adv-x="421" 
d="M38 165h105q0 -30 20 -48.5t46 -18.5q29 0 46.5 16.5t17.5 45.5q0 14 -4.5 24.5t-9.5 16.5t-17.5 12t-18.5 8t-24 6.5t-24 6.5q-44 12 -74 45t-30 89q0 59 40 98.5t98 39.5q75 0 119 -64l-68 -67q-13 33 -44 33q-18 0 -29 -12t-11 -28t10.5 -26t23 -14t37.5 -11t39 -12
q97 -36 97 -143q0 -75 -49 -121.5t-125 -46.5t-123.5 49t-47.5 122zM327 790l66 -67l-183 -183l-183 183l66 67l117 -117z" />
    <glyph glyph-name="Ydieresis" unicode="&#x178;" horiz-adv-x="504" 
d="M5 700h118l129 -286l129 286h118l-191 -400v-300h-112v300zM63 845q0 31 21.5 53t52.5 22t52.5 -22t21.5 -53t-21.5 -53t-52.5 -22t-52.5 22t-21.5 53zM294 845q0 31 21.5 53t52.5 22t52.5 -22t21.5 -53t-21.5 -53t-52.5 -22t-52.5 22t-21.5 53z" />
    <glyph glyph-name="Zcaron" unicode="&#x17d;" horiz-adv-x="623" 
d="M126 300v100h130l141 194h-323v106h461v-94l-149 -206h54v-100h-127l-140 -194h407v-106h-545v94l149 206h-58zM431 990l66 -67l-183 -183l-183 183l66 67l117 -117z" />
    <glyph glyph-name="zcaron" unicode="&#x17e;" horiz-adv-x="537" 
d="M58 396v104h419v-94l-290 -302h308v-104h-455v94l290 302h-272zM389 790l66 -67l-183 -183l-183 183l66 67l117 -117z" />
    <glyph glyph-name="florin" unicode="&#x192;" horiz-adv-x="479" 
d="M148 404v118q0 80 52.5 132t134.5 52q113 0 167 -104l-76 -68q-35 68 -91 68q-35 0 -56 -23t-21 -57v-118h158v-104h-158v-386q0 -78 -44.5 -121t-117.5 -43h-45v104h45q22 0 37 18t15 46v382h-97v104h97z" />
    <glyph glyph-name="circumflex" unicode="&#x2c6;" horiz-adv-x="416" 
d="M91 535l-66 67l183 183l183 -183l-66 -67l-117 117z" />
    <glyph glyph-name="caron" unicode="&#x2c7;" horiz-adv-x="416" 
d="M325 785l66 -67l-183 -183l-183 183l66 67l117 -117z" />
    <glyph glyph-name="breve" unicode="&#x2d8;" horiz-adv-x="440" 
d="M220 550q-70 0 -122 47t-60 115h103q6 -30 26 -49.5t53 -19.5t53 19.5t26 49.5h103q-8 -68 -60 -115t-122 -47z" />
    <glyph glyph-name="dotaccent" unicode="&#x2d9;" horiz-adv-x="264" 
d="M58 631q0 31 21.5 53t52.5 22t52.5 -22t21.5 -53t-21.5 -53t-52.5 -22t-52.5 22t-21.5 53z" />
    <glyph glyph-name="ring" unicode="&#x2da;" horiz-adv-x="300" 
d="M50 650q0 42 29 71t71 29t71 -29t29 -71t-29 -71t-71 -29t-71 29t-29 71zM122 650q0 -12 8 -20t20 -8t20 8t8 20t-8 20t-20 8t-20 -8t-8 -20z" />
    <glyph glyph-name="ogonek" unicode="&#x2db;" horiz-adv-x="260" 
d="M169 -143h82q0 -48 -33 -80.5t-80 -32.5q-50 0 -81.5 32t-31.5 79q0 22 9 44l42 101h88l-42 -100q-14 -33 -14 -43q0 -13 8 -22t22 -9t22.5 9t8.5 22z" />
    <glyph glyph-name="tilde" unicode="&#x2dc;" horiz-adv-x="448" 
d="M325 676h100q-8 -52 -41 -81.5t-88 -29.5q-32 0 -68 17.5t-50 17.5q-29 0 -37 -26h-100q8 52 41 81.5t88 29.5q32 0 68 -17.5t50 -17.5q29 0 37 26z" />
    <glyph glyph-name="hungarumlaut" unicode="&#x2dd;" horiz-adv-x="553" 
d="M104 545l-63 80l197 152l63 -80zM331 545l-63 80l197 152l63 -80z" />
    <glyph glyph-name="Delta" unicode="&#x394;" horiz-adv-x="816" 
d="M8 0l400 712l400 -712h-800zM626 106l-218 389l-218 -389h436z" />
    <glyph glyph-name="Delta" unicode="&#x2206;" horiz-adv-x="816" 
d="M8 0l400 712l400 -712h-800zM626 106l-218 389l-218 -389h436z" />
    <glyph glyph-name="Omega" unicode="&#x3a9;" horiz-adv-x="784" 
d="M738 106v-106h-292v104q78 20 129 89.5t51 156.5q0 109 -65.5 179.5t-168.5 70.5t-168.5 -70.5t-65.5 -179.5q0 -87 51 -156.5t129 -89.5v-104h-292v106h110q-110 110 -110 244q0 153 96.5 254.5t249.5 101.5t249.5 -101.5t96.5 -254.5q0 -134 -110 -244h110z" />
    <glyph glyph-name="Omega" unicode="&#x2126;" horiz-adv-x="784" 
d="M738 106v-106h-292v104q78 20 129 89.5t51 156.5q0 109 -65.5 179.5t-168.5 70.5t-168.5 -70.5t-65.5 -179.5q0 -87 51 -156.5t129 -89.5v-104h-292v106h110q-110 110 -110 244q0 153 96.5 254.5t249.5 101.5t249.5 -101.5t96.5 -254.5q0 -134 -110 -244h110z" />
    <glyph glyph-name="pi" unicode="&#x3c0;" horiz-adv-x="614" 
d="M341 157v239h-70v-396h-110v396h-104v104h496v-104h-102v-244q0 -24 14.5 -39t39.5 -15v-104q-164 0 -164 163z" />
    <glyph glyph-name="endash" unicode="&#x2013;" horiz-adv-x="578" 
d="M57 280v100h461v-100h-461z" />
    <glyph glyph-name="emdash" unicode="&#x2014;" horiz-adv-x="809" 
d="M57 280v100h692v-100h-692z" />
    <glyph glyph-name="quoteleft" unicode="&#x2018;" horiz-adv-x="284" 
d="M262 487l-92 -53l-154 266h120z" />
    <glyph glyph-name="quoteright" unicode="&#x2019;" horiz-adv-x="284" 
d="M114 434l-92 53l126 213h120z" />
    <glyph glyph-name="quotesinglbase" unicode="&#x201a;" horiz-adv-x="284" 
d="M176 266l92 -53l-126 -213h-120z" />
    <glyph glyph-name="quotedblleft" unicode="&#x201c;" horiz-adv-x="458" 
d="M262 487l-92 -53l-154 266h120zM436 487l-92 -53l-154 266h120z" />
    <glyph glyph-name="quotedblright" unicode="&#x201d;" horiz-adv-x="458" 
d="M288 434l-92 53l126 213h120zM114 434l-92 53l126 213h120z" />
    <glyph glyph-name="quotedblbase" unicode="&#x201e;" horiz-adv-x="458" 
d="M176 266l92 -53l-126 -213h-120zM350 266l92 -53l-126 -213h-120z" />
    <glyph glyph-name="dagger" unicode="&#x2020;" horiz-adv-x="528" 
d="M208 500v200l112 12v-212h159v-106h-159v-644l-112 -12v656h-159v106h159z" />
    <glyph glyph-name="daggerdbl" unicode="&#x2021;" horiz-adv-x="528" 
d="M49 194v106h159v94h-159v106h159v200l112 12v-212h159v-106h-159v-94h159v-106h-159v-444l-112 -12v456h-159z" />
    <glyph glyph-name="bullet" unicode="&#x2022;" horiz-adv-x="248" 
d="M50 350q0 31 21.5 53t52.5 22t52.5 -22t21.5 -53t-21.5 -53t-52.5 -22t-52.5 22t-21.5 53z" />
    <glyph glyph-name="ellipsis" unicode="&#x2026;" horiz-adv-x="712" 
d="M72 69q0 31 21.5 53t52.5 22t52.5 -22t21.5 -53t-21.5 -53t-52.5 -22t-52.5 22t-21.5 53zM282 69q0 31 21.5 53t52.5 22t52.5 -22t21.5 -53t-21.5 -53t-52.5 -22t-52.5 22t-21.5 53zM492 69q0 31 21.5 53t52.5 22t52.5 -22t21.5 -53t-21.5 -53t-52.5 -22t-52.5 22
t-21.5 53z" />
    <glyph glyph-name="perthousand" unicode="&#x2030;" horiz-adv-x="1354" 
d="M248 -61l365 861l91 -39l-365 -861zM48 525q0 78 51 129.5t130 51.5t130 -51.5t51 -129.5t-51 -129.5t-130 -51.5t-130 51.5t-51 129.5zM148 525q0 -37 22.5 -60t58.5 -23t58.5 23t22.5 60t-22.5 60t-58.5 23t-58.5 -23t-22.5 -60zM542 175q0 78 51 129.5t130 51.5
t130 -51.5t51 -129.5t-51 -129.5t-130 -51.5t-130 51.5t-51 129.5zM642 175q0 -37 22.5 -60t58.5 -23t58.5 23t22.5 60t-22.5 60t-58.5 23t-58.5 -23t-22.5 -60zM944 175q0 78 51 129.5t130 51.5t130 -51.5t51 -129.5t-51 -129.5t-130 -51.5t-130 51.5t-51 129.5zM1044 175
q0 -37 22.5 -60t58.5 -23t58.5 23t22.5 60t-22.5 60t-58.5 23t-58.5 -23t-22.5 -60z" />
    <glyph glyph-name="guilsinglleft" unicode="&#x2039;" horiz-adv-x="390" 
d="M359 120l-71 -70l-249 250l249 250l71 -70l-180 -180z" />
    <glyph glyph-name="guilsinglright" unicode="&#x203a;" horiz-adv-x="390" 
d="M31 480l71 70l249 -250l-249 -250l-71 70l180 180z" />
    <glyph glyph-name="fraction" unicode="&#x2044;" horiz-adv-x="774" 
d="M31 42l664 664l48 -48l-664 -664z" />
    <glyph glyph-name="Euro" unicode="&#x20ac;" horiz-adv-x="833" 
d="M25 200v100h91q0 2 -3 40h-88v100h99q30 117 119.5 191.5t215.5 74.5q166 0 266 -128l-79 -78q-73 100 -187 100q-78 0 -135 -44t-83 -116h230v-100h-244q0 -20 3 -40h241v-100h-199q65 -100 187 -100q88 0 150.5 53.5t78.5 146.5h112q-16 -135 -112.5 -220.5
t-228.5 -85.5q-111 0 -191.5 55.5t-122.5 150.5h-120z" />
    <glyph glyph-name="trademark" unicode="&#x2122;" horiz-adv-x="696" 
d="M21 633v67h212v-67h-72v-233h-68v233h-72zM269 400v300h79l98 -207l98 207h79v-300h-68v175l-83 -175h-52l-83 175v-175h-68z" />
    <glyph glyph-name="partialdiff" unicode="&#x2202;" 
d="M41 250q0 107 73.5 181.5t178.5 74.5q22 0 46 -4l-129 248h112l181 -340q50 -98 50 -160q0 -110 -74 -183t-182 -73t-182 73t-74 183zM151 250q0 -67 40.5 -109.5t105.5 -42.5t105.5 42.5t40.5 109.5t-40.5 109.5t-105.5 42.5t-105.5 -42.5t-40.5 -109.5z" />
    <glyph glyph-name="product" unicode="&#x220f;" horiz-adv-x="623" 
d="M84 700h455v-700h-112v594h-231v-594h-112v700z" />
    <glyph glyph-name="summation" unicode="&#x2211;" horiz-adv-x="656" 
d="M49 584v116h555v-106h-400l283 -244l-283 -244h400v-106h-555v116l278 234z" />
    <glyph glyph-name="minus" unicode="&#x2212;" horiz-adv-x="460" 
d="M57 280v100h343v-100h-343z" />
    <glyph glyph-name="radical" unicode="&#x221a;" horiz-adv-x="656" 
d="M31 300l1 100h180l94 -252l234 652h108l-295 -800h-96l-112 300h-114z" />
    <glyph glyph-name="infinity" unicode="&#x221e;" horiz-adv-x="518" 
d="M50 350q0 53 35.5 89t87.5 36q57 0 86 -39q29 39 86 39q52 0 87.5 -36t35.5 -89t-35.5 -89t-87.5 -36q-57 0 -86 39q-29 -39 -86 -39q-52 0 -87.5 36t-35.5 89zM132 350q0 -18 12.5 -30.5t30.5 -12.5t30 12.5t12 30.5t-12 30.5t-30 12.5t-30.5 -12.5t-12.5 -30.5z
M301 350q0 -18 12 -30.5t30 -12.5t30.5 12.5t12.5 30.5t-12.5 30.5t-30.5 12.5t-30 -12.5t-12 -30.5z" />
    <glyph glyph-name="integral" unicode="&#x222b;" horiz-adv-x="541" 
d="M544 594h-52q-52 0 -74 -51l-292 -689q-44 -104 -151 -104h-46v106h42q45 0 63 41l291 682q52 121 164 121h55v-106z" />
    <glyph glyph-name="approxequal" unicode="&#x2248;" horiz-adv-x="555" 
d="M402 306h103q0 -52 -32.5 -82t-87.5 -30q-24 0 -106 14t-98 14q-28 0 -28 -22h-103q0 52 32.5 82t87.5 30q24 0 106 -14t98 -14q28 0 28 22zM402 460h103q0 -52 -32.5 -82t-87.5 -30q-24 0 -106 14t-98 14q-28 0 -28 -22h-103q0 52 32.5 82t87.5 30q24 0 106 -14t98 -14
q28 0 28 22z" />
    <glyph glyph-name="notequal" unicode="&#x2260;" horiz-adv-x="572" 
d="M57 360v100h229l59 139l91 -39l-42 -100h118v-100h-161l-25 -60h186v-100h-229l-59 -139l-91 39l42 100h-118v100h161l25 60h-186z" />
    <glyph glyph-name="lessequal" unicode="&#x2264;" horiz-adv-x="572" 
d="M406 192l-71 -70l-226 227l226 227l71 -70l-158 -157zM57 0v100h455v-100h-455z" />
    <glyph glyph-name="greaterequal" unicode="&#x2265;" horiz-adv-x="572" 
d="M237 122l-71 70l158 157l-158 157l71 70l226 -227zM515 100v-100h-455v100h455z" />
    <glyph glyph-name="lozenge" unicode="&#x25ca;" horiz-adv-x="570" 
d="M58 350l227 356l227 -356l-227 -356zM394 350l-109 171l-109 -171l109 -171z" />
    <glyph glyph-name="fi" unicode="&#xfb01;" horiz-adv-x="673" 
d="M136 500v76q0 65 39 97.5t96 32.5q71 0 108 -46l-74 -73q-9 15 -29 15q-14 0 -22 -9t-8 -24v-69h133v-104h-133v-396h-110v396h-101v104h101zM486 0v500h110v-500h-110zM467 631q0 31 21.5 53t52.5 22t52.5 -22t21.5 -53t-21.5 -53t-52.5 -22t-52.5 22t-21.5 53z" />
    <glyph glyph-name="fl" unicode="&#xfb02;" horiz-adv-x="615" 
d="M136 500v76q0 65 39 97.5t96 32.5q71 0 108 -46l-74 -73q-9 15 -29 15q-14 0 -22 -9t-8 -24v-69h133v-104h-133v-396h-110v396h-101v104h101zM428 0v700l110 12v-712h-110z" />
    <glyph glyph-name="CR" horiz-adv-x="0" 
 />
    <glyph glyph-name="apple" horiz-adv-x="760" 
d="M676 617v-595q0 -9 -6.5 -15.5t-15.5 -6.5q-3 0 -7 1l-267 77l-267 -77q-4 -1 -7 -1q-9 0 -15.5 6.5t-6.5 15.5v595q0 17 16 22l270 78q6 2 10 2t10 -2l270 -78q16 -5 16 -22zM358 366v303l-230 -67q6 -94 71.5 -161t158.5 -75zM402 669v-303q93 8 158.5 75t71.5 161z
M127 463v-412l231 67v204q-73 6 -134 43.5t-97 97.5zM633 51v412q-37 -60 -97.5 -97.5t-133.5 -43.5v-204z" />
    <glyph glyph-name="a.ss01" horiz-adv-x="484" 
d="M41 166q0 77 50.5 126.5t126.5 49.5q54 0 88 -32v26q0 66 -67 66q-41 0 -67 -43l-71 71q50 76 143 76q83 0 127.5 -46.5t44.5 -128.5v-331h-110v31q-31 -37 -92 -37q-73 0 -123 48t-50 124zM151 169q0 -34 22.5 -54.5t57.5 -20.5t57.5 20.5t22.5 54.5t-22.5 54.5
t-57.5 20.5t-57.5 -20.5t-22.5 -54.5z" />
    <glyph glyph-name="agrave.ss01" horiz-adv-x="484" 
d="M41 166q0 77 50.5 126.5t126.5 49.5q54 0 88 -32v26q0 66 -67 66q-41 0 -67 -43l-71 71q50 76 143 76q83 0 127.5 -46.5t44.5 -128.5v-331h-110v31q-31 -37 -92 -37q-73 0 -123 48t-50 124zM151 169q0 -34 22.5 -54.5t57.5 -20.5t57.5 20.5t22.5 54.5t-22.5 54.5
t-57.5 20.5t-57.5 -20.5t-22.5 -54.5zM388 661l-27 -97l-241 65l27 97z" />
    <glyph glyph-name="aacute.ss01" horiz-adv-x="484" 
d="M138 564l-27 97l241 65l27 -97zM41 166q0 77 50.5 126.5t126.5 49.5q54 0 88 -32v26q0 66 -67 66q-41 0 -67 -43l-71 71q50 76 143 76q83 0 127.5 -46.5t44.5 -128.5v-331h-110v31q-31 -37 -92 -37q-73 0 -123 48t-50 124zM151 169q0 -34 22.5 -54.5t57.5 -20.5
t57.5 20.5t22.5 54.5t-22.5 54.5t-57.5 20.5t-57.5 -20.5t-22.5 -54.5z" />
    <glyph glyph-name="acircumflex.ss01" horiz-adv-x="484" 
d="M41 166q0 77 50.5 126.5t126.5 49.5q54 0 88 -32v26q0 66 -67 66q-41 0 -67 -43l-71 71q50 76 143 76q83 0 127.5 -46.5t44.5 -128.5v-331h-110v31q-31 -37 -92 -37q-73 0 -123 48t-50 124zM151 169q0 -34 22.5 -54.5t57.5 -20.5t57.5 20.5t22.5 54.5t-22.5 54.5
t-57.5 20.5t-57.5 -20.5t-22.5 -54.5zM123 535l-66 67l183 183l183 -183l-66 -67l-117 117z" />
    <glyph glyph-name="atilde.ss01" horiz-adv-x="484" 
d="M41 166q0 77 50.5 126.5t126.5 49.5q54 0 88 -32v26q0 66 -67 66q-41 0 -67 -43l-71 71q50 76 143 76q83 0 127.5 -46.5t44.5 -128.5v-331h-110v31q-31 -37 -92 -37q-73 0 -123 48t-50 124zM151 169q0 -34 22.5 -54.5t57.5 -20.5t57.5 20.5t22.5 54.5t-22.5 54.5
t-57.5 20.5t-57.5 -20.5t-22.5 -54.5zM326 676h100q-8 -52 -41 -81.5t-88 -29.5q-31 0 -68 17.5t-50 17.5q-29 0 -37 -26h-100q8 52 41 81.5t88 29.5q31 0 68 -17.5t50 -17.5q29 0 37 26z" />
    <glyph glyph-name="adieresis.ss01" horiz-adv-x="484" 
d="M57 651q0 31 21.5 53t52.5 22t52.5 -22t21.5 -53t-21.5 -53t-52.5 -22t-52.5 22t-21.5 53zM288 651q0 31 21.5 53t52.5 22t52.5 -22t21.5 -53t-21.5 -53t-52.5 -22t-52.5 22t-21.5 53zM41 166q0 77 50.5 126.5t126.5 49.5q54 0 88 -32v26q0 66 -67 66q-41 0 -67 -43
l-71 71q50 76 143 76q83 0 127.5 -46.5t44.5 -128.5v-331h-110v31q-31 -37 -92 -37q-73 0 -123 48t-50 124zM151 169q0 -34 22.5 -54.5t57.5 -20.5t57.5 20.5t22.5 54.5t-22.5 54.5t-57.5 20.5t-57.5 -20.5t-22.5 -54.5z" />
    <glyph glyph-name="aring.ss01" horiz-adv-x="484" 
d="M142 650q0 42 29 71t71 29t71 -29t29 -71t-29 -71t-71 -29t-71 29t-29 71zM214 650q0 -12 8 -20t20 -8t20 8t8 20t-8 20t-20 8t-20 -8t-8 -20zM41 166q0 77 50.5 126.5t126.5 49.5q54 0 88 -32v26q0 66 -67 66q-41 0 -67 -43l-71 71q50 76 143 76q83 0 127.5 -46.5
t44.5 -128.5v-331h-110v31q-31 -37 -92 -37q-73 0 -123 48t-50 124zM151 169q0 -34 22.5 -54.5t57.5 -20.5t57.5 20.5t22.5 54.5t-22.5 54.5t-57.5 20.5t-57.5 -20.5t-22.5 -54.5z" />
    <glyph glyph-name="g.ss01" horiz-adv-x="536" 
d="M56 303q0 86 57 144.5t144 58.5q63 0 102 -29v23h110v-197q0 -91 -67 -146q95 -67 95 -182q0 -103 -67 -167t-167 -64q-95 0 -163.5 64.5t-68.5 166.5q0 120 92 182q-67 58 -67 146zM263 101q-51 0 -84.5 -35t-33.5 -91t33.5 -91.5t84.5 -35.5q55 0 88.5 35t33.5 92
t-33.5 91.5t-88.5 34.5zM166 303q0 -44 27.5 -71t69.5 -27t69 27t27 71t-27 71.5t-69 27.5q-43 0 -70 -27t-27 -72z" />
    <glyph glyph-name="e.ss01" 
d="M41 250q0 108 73 182t183 74q87 0 152 -48.5t91 -126.5l-338 -195q41 -38 95 -38q61 0 97.5 34t45.5 94h112q-10 -104 -81.5 -168t-173.5 -64q-110 0 -183 74t-73 182zM153 250q0 -17 2 -25l238 137q-37 40 -96 40q-64 0 -104 -44.5t-40 -107.5z" />
    <glyph glyph-name="egrave.ss01" 
d="M41 250q0 108 73 182t183 74q87 0 152 -48.5t91 -126.5l-338 -195q41 -38 95 -38q61 0 97.5 34t45.5 94h112q-10 -104 -81.5 -168t-173.5 -64q-110 0 -183 74t-73 182zM153 250q0 -17 2 -25l238 137q-37 40 -96 40q-64 0 -104 -44.5t-40 -107.5zM426 661l-27 -97l-241 65
l27 97z" />
    <glyph glyph-name="eacute.ss01" 
d="M41 250q0 108 73 182t183 74q87 0 152 -48.5t91 -126.5l-338 -195q41 -38 95 -38q61 0 97.5 34t45.5 94h112q-10 -104 -81.5 -168t-173.5 -64q-110 0 -183 74t-73 182zM153 250q0 -17 2 -25l238 137q-37 40 -96 40q-64 0 -104 -44.5t-40 -107.5zM170 564l-27 97l241 65
l27 -97z" />
    <glyph glyph-name="ecircumflex.ss01" 
d="M41 250q0 108 73 182t183 74q87 0 152 -48.5t91 -126.5l-338 -195q41 -38 95 -38q61 0 97.5 34t45.5 94h112q-10 -104 -81.5 -168t-173.5 -64q-110 0 -183 74t-73 182zM153 250q0 -17 2 -25l238 137q-37 40 -96 40q-64 0 -104 -44.5t-40 -107.5zM179 535l-66 67l183 183
l183 -183l-66 -67l-117 117z" />
    <glyph glyph-name="edieresis.ss01" 
d="M41 250q0 108 73 182t183 74q87 0 152 -48.5t91 -126.5l-338 -195q41 -38 95 -38q61 0 97.5 34t45.5 94h112q-10 -104 -81.5 -168t-173.5 -64q-110 0 -183 74t-73 182zM153 250q0 -17 2 -25l238 137q-37 40 -96 40q-64 0 -104 -44.5t-40 -107.5zM109 651q0 31 21.5 53
t52.5 22t52.5 -22t21.5 -53t-21.5 -53t-52.5 -22t-52.5 22t-21.5 53zM340 651q0 31 21.5 53t52.5 22t52.5 -22t21.5 -53t-21.5 -53t-52.5 -22t-52.5 22t-21.5 53z" />
    <glyph glyph-name="k.ss01" horiz-adv-x="474" 
d="M452 331q0 -60 -31 -103.5t-83 -60.5l129 -167h-139l-141 182v-182h-110v700l110 12v-235q34 29 93 29q78 0 125 -49t47 -126zM343 331q0 32 -22.5 52.5t-56.5 20.5t-56.5 -20.5t-22.5 -52.5t22.5 -52.5t56.5 -20.5t56.5 20.5t22.5 52.5z" />
    </font>
</defs>
</svg>
